El devorador de pecados 2003 sub

El devorador de pecados 2003 sub




Título original
The Order
2003
Duración
102 min.
País
Estados Unidos Estados Unidos
Director
Brian Helgeland
Guion
Brian Helgeland
Música
David Torn
Fotografía
Nicola Pecorini
Reparto
Heath Ledger, Shannyn Sossamon, Mark Addy, Peter Weller, Francesco Carnelutti, Benno Fürmann, Mattia Sbragia, Mirko Casaburo, Giulia Lombardi, Steve Toussaint, Alessandra Costanzo, Richard Bremmer, Adam Levy, Richard Leaf
Productora
20th Century Fox
Género
Terror. Thriller | Religión
Sinopsis
Un conflictivo y rebelde sacerdote viaja a Roma para investigar la extraña muerte de su mentor. El joven cura sospecha que quizá la clave del misterio sea el "Sin Eater" (el comedor de pecados), una especie de secta formada por sacerdotes que comían la carne de los muertos para atribuirse los pecados que no les habían sido perdonados, consiguiendo así su absolución. (FILMAFFINITY)


General
Complete name                            : C:Userstruman076DownloadsvideosThe.Order.2003.1080p.BluRay.H264.AAC-RARBGThe.Order.2003.1080p.BluRay.H264.AAC.mp4
Format                                   : MPEG-4
Format profile                           : Base Media
Codec ID                                 : isom
File size                                : 1.95 GiB
Duration                                 : 1h 42mn
Overall bit rate                         : 2 731 Kbps
Movie name                               : The.Order.2003.1080p.BluRay.H264.AAC-RARBG
Encoded date                             : UTC 2016-01-21 15:10:05
Tagged date                              : UTC 2016-01-21 15:10:05
Writing application                      : Lavf56.40.101
Comment                                  : The.Order.2003.1080p.BluRay.H264.AAC-RARBG

Video
ID                                       : 1
Format                                   : AVC
Format/Info                              : Advanced Video Codec
Format profile                           : [email protected]
Format settings, CABAC                   : Yes
Format settings, ReFrames                : 4 frames
Codec ID                                 : avc1
Codec ID/Info                            : Advanced Video Coding
Duration                                 : 1h 42mn
Bit rate                                 : 2 500 Kbps
Width                                    : 1 920 pixels
Height                                   : 1 040 pixels
Display aspect ratio                     : 1.85:1
Frame rate mode                          : Constant
Frame rate                               : 23.976 fps
Color space                              : YUV
Chroma subsampling                       : 4:2:0
Bit depth                                : 8 bits
Scan type                                : Progressive
Bits/(Pixel*Frame)                       : 0.052
Stream size                              : 1.79 GiB (92%)
Writing library                          : x264 core 148 r2638M 7599210

Audio
ID                                       : 2
Format                                   : AAC
Format/Info                              : Advanced Audio Codec
Format profile                           : LC
Codec ID                                 : 40
Duration                                 : 1h 42mn
Bit rate mode                            : Constant
Bit rate                                 : 224 Kbps
Channel(s)                               : 2 channels
Channel(s)_Original                      : 6 channels
Channel positions                        : Front: L C R, Side: L R, LFE
Sampling rate                            : 48.0 KHz
Compression mode                         : Lossy
Stream size                              : 164 MiB (8%)
Language                                 : English


Peso:         1.95 gb.
Formato:    mp4
Audio:        Ingles
Subtitulos:  Español latino
Formato:    rar
   
Resolucion: 1080p.BluRay




descargar peliculas - descargar programas
47 Puntos Score: 7.8/10
Visitas: 970 Favoritos: 5
Ver los usuarios que votaron...
12 Comentarios El devorador de pecados 2003 sub
opa!! gracias
Perdón, no puedo dar puntos, pues no llevo ninguno, pero ...y los subtitulos?
no te preocupes por los puntos gracias, los sub deben estar dentro del rar
excelente pelicula, gracias por tan buena peli, saludos.
Para dejar un comentario Registrate! o.. eres ya usuario? Accede!
Facebook Identi