La Llegada [Arrival] [2016] Brrip 720p Mega Dual

La Llegada [Arrival] [2016] Brrip 720p Mega Dual Latino/Ingles





Título original:    Arrival
Año:    2016
Duración:    116 min.
País:    Estados Unidos Estados Unidos
Director:    Denis Villeneuve
Guión:    Eric Heisserer (Relato: Ted Chiang)
Música:    Jóhann Jóhannsson
Fotografía:    Bradford Young
Reparto:    Amy Adams, Jeremy Renner, Forest Whitaker, Michael Stuhlbarg, Mark O'Brien, Tzi Ma, Nathaly Thibault, Pat Kiely, Joe Cobden, Julian Casey, Larry Day, Russell Yuen, Abigail Pniowsky, Philippe Hartmann, Andrew Shaver
Productora:    Paramount / FilmNation / Lava Bear Films / 21 Laps Entertainment
Género:    Ciencia ficción. Drama | Extraterrestres

Sinopsis
    Cuando naves extraterrestres comienzan a llegar a la Tierra, los altos mandos militares piden ayuda a una experta lingüista (Amy Adams) para intentar averiguar si los alienígenas vienen en son de paz o suponen una amenaza. Poco a poco la mujer intentará aprender a comunicarse con los extraños invasores, poseedores de un lenguaje propio, para dar con la verdadera y misteriosa razón de la visita extraterrestre... Adaptación del relato corto "The Story of Your Life" del escritor Ted Chiang, ganador de los reconocidos premios de ciencia ficción Hugo y Nebula.





General
Arrival.2016.720p.BRRip.x264.AAC-ETRG.mkv
Format                         : Matroska
Format version                 : Version 4 / Version 2
File size                      : 1.01 GiB
Duration                       : 1 h 56 min
Overall bit rate               : 1 237 kb/s
Encoded date                   : UTC 2017-02-02 21:49:45
Writing application            : mkvmerge v8.3.0 ('Over the Horizon') 64bit
Writing library                : libebml v1.3.1 + libmatroska v1.4.2

Video
ID                             : 1
Format                         : AVC
Format/Info                    : Advanced Video Codec
Format profile                 : [email protected]
Format settings, CABAC         : Yes
Format settings, ReFrames      : 5 frames
Codec ID                       : V_MPEG4/ISO/AVC
Duration                       : 1 h 56 min
Bit rate                       : 949 kb/s
Width                          : 1 280 pixels
Height                         : 536 pixels
Display aspect ratio           : 2.40:1
Frame rate mode                : Constant
Frame rate                     : 23.976 (24000/1001) FPS
Color space                    : YUV
Chroma subsampling             : 4:2:0
Bit depth                      : 8 bits
Scan type                      : Progressive
Stream size                    : 790 MiB (77%)


Audio #1
ID                             : 2
Format                         : AC-3
Format/Info                    : Audio Coding 3
Mode extension                 : CM (complete main)
Format settings, Endianness    : Big
Codec ID                       : A_AC3
Duration                       : 1 h 56 min
Bit rate                       : 192 kb/s
Channel(s)                     : 2 channels
Channel positions              : Front: L R
Compression mode               : Lossy
Stream size                    : 160 MiB (16%)
Language                       : Spanish
Default                        : Yes
Forced                         : No

Audio #2
ID                             : 3
Format                         : AAC
Format/Info                    : Advanced Audio Codec
Codec ID                       : A_AAC
Duration                       : 1 h 56 min
Channel(s)                     : 2 channels
Channel positions              : Front: L R
Sampling rate                  : 48.0 kHz
Stream size                    : 77.7 MiB (8%)

Text
ID                             : 4
Format                         : UTF-8
Codec ID                       : S_TEXT/UTF8
Codec ID/Info                  : UTF-8 Plain Text
Duration                       : 1 h 50 min
Bit rate                       : 49 b/s
Count of elements              : 1123
Stream size                    : 39.9 KiB (0%)
Language                       : Spanish
Default                        : Yes
Forced                         : No



















peliculas - programas
105 Puntos Score: 8.8/10
Visitas: 3114 Favoritos: 9
Ver los usuarios que votaron...
20 Comentarios La Llegada [Arrival] [2016] Brrip 720p Mega Dual
Estimado, gracias por el aporte, la película esta en español latino?
@crokerone si amigo latino e Ingles [dual]
Ayer baje una que tiene la frase "gnula.nu" al principio y al medio, ¿esta tambien la tiene?.
no amigo este es un brrip del blu ray baja con confianza @javier_s
Gracias por compartir  
¿puedes subir el audio latino? tengo un bd solo en ingles y quería el audio
YO MEN DA Gusto leer que no trae esa leyenda tan latosa... GRACIAS !!!  
Muchas gracias  
Muchas gracias.
GRACIAS BUEN APORTE!!!!  
Gracias amigo  
genial aporte me lallevo.. muchas gracias
Muchas gracias y saludos.
muchas gracias
Para dejar un comentario Registrate! o.. eres ya usuario? Accede!
Facebook Identi