El Ultimo Boy Scout [720p] h264 Latino Mega

El Ultimo Boy Scout [720p] h264  Latino Mega





Título original:    The Last Boy Scout
Año:    1991
Duración:    101 min.
País:    Estados Unidos Estados Unidos
Director:    Tony Scott
Guión:    Shane Black (Historia: Shane Black, Greg Hicks)
Música:    Michael Kamen
Fotografía:    Ward Russell
Reparto:    Bruce Willis, Damon Wayans, Chelsea Field, Noble Willingham, Taylor Negron, Danielle Harris, Halle Berry, Bruce McGill, Joe Santos, Kim Coates, Chelcie Ross
Productora:    Geffen Pictures / Silver Pictures
Género:    Acción. Comedia | Crimen. Buddy Film

Sinopsis
    Joe Hallenbeck, un detective privado en horas bajas, había sido uno de los más importantes agentes del servicio secreto norteamericano, pero su carrera terminó al enfrentarse a un político corrupto. Por su parte, Jimmy Dix, una gran estrella del fútbol, cae en desgracia al verse involucrado en un escándalo. Ambos unirán sus fuerzas para resolver un turbio caso en el que se ven implicados.





General
El Ultimo Boy Scout.720p[Latino].mkv
Format                         : Matroska
Format version                 : Version 2
File size                      : 894 MiB
Duration                       : 1 h 45 min
Overall bit rate               : 1 186 kb/s
Encoded date                   : UTC 2012-08-11 16:18:12


Video
ID                             : 1
Format                         : AVC
Format/Info                    : Advanced Video Codec
Format profile                 : [email protected]
Format settings, CABAC         : Yes
Format settings, ReFrames      : 4 frames
Muxing mode                    : Header stripping
Codec ID                       : V_MPEG4/ISO/AVC
Duration                       : 1 h 45 min
Bit rate                       : 1 000 kb/s
Width                          : 1 280 pixels
Height                         : 528 pixels
Display aspect ratio           : 2.40:1
Frame rate mode                : Constant
Frame rate                     : 23.976 (24000/1001) FPS
Color space                    : YUV
Chroma subsampling             : 4:2:0
Bit depth                      : 8 bits
Scan type                      : Progressive
Bits/(Pixel*Frame)             : 0.062
Stream size                    : 731 MiB (82%)
Default                        : Yes
Forced                         : No

Audio
ID                             : 2
Format                         : MPEG Audio
Format version                 : Version 1
Format profile                 : Layer 3
Mode                           : Joint stereo
Muxing mode                    : Header stripping
Codec ID                       : A_MPEG/L3
Codec ID/Hint                  : MP3
Duration                       : 1 h 45 min
Bit rate mode                  : Constant
Bit rate                       : 192 kb/s
Channel(s)                     : 2 channels
Sampling rate                  : 48.0 kHz
Compression mode               : Lossy
Stream size                    : 145 MiB (16%)
Default                        : Yes
Forced                         : No


















descargar peliculas - descargar programas
40 Puntos Score: 8/10
Visitas: 1685 Favoritos: 1
Ver los usuarios que votaron...
10 Comentarios El Ultimo Boy Scout [720p] h264 Latino Mega
gracias por el aporte un peliculon
Muchas gracias por compartir.
Saludos
GRacias por compartir, no lo tendrias en hd
@ringooooo no amigo solo tengo esta en 720p
excelente pelicula
Buen cine luis_f muchas gracias amigo
"si me vueles a tocar te mato, dame un cigarrillo".
gracias vato esta excelente  
Para dejar un comentario Registrate! o.. eres ya usuario? Accede!
Facebook Identi