El Club de las madres rebeldes [Latino] 720p Mega

 El Club de las madres rebeldes [Latino] 720p Mega




Título original:    Bad Moms
Año:    2016
Duración:    101 min.
País:    Estados Unidos Estados Unidos
Director:    Jon Lucas, Scott Moore
Guión:    Jon Lucas, Scott Moore
Música:    Christopher Lennertz
Fotografía:    Jim Denault
Reparto:    Mila Kunis, Kristen Bell, Kathryn Hahn, Christina Applegate, Annie Mumolo, Jada Pinkett Smith, Jay Hernandez, David Walton, Clark Duke, Oona Laurence, Wendell Pierce, Eugenia Kuzmina, Emjay Anthony, Christina DeRosa, Jay Jablonski, Billy Slaughter, Mike R. Moreau, Hawn Tran, Martha Stewart
Productora:    Block Entertainment / Merced Media Partners / PalmStar Media / STX Entertainment
Género:    Comedia

Sinopsis
    Como la mayoría de las madres modernas, Amy cuida de todos menos de ella misma. Su vida es perfecta: un matrimonio feliz, hijos de sobresaliente, una casa preciosa y un pelo perfecto los 365 días del año. Pero todo esto es solo apariencia y Amy está a punto de estallar: sobrecargada de trabajo y de compromisos, demasiado cansada para aguantar una sola petición más, decide arrastrar a otras dos madres superadas a un atracón de locura, libertad, y diversión. Pero se cruzan con la líder de la asociación de padres y madres, una devota del ideal de 'madre perfecta'.






General
Bad.Moms.2016.720p.BRRip.Latino.mkv
Format                         : Matroska
Format version                 : Version 4 / Version 2
File size                      : 848 MiB
Duration                       : 1 h 40 min
Overall bit rate               : 1 174 kb/s
Encoded date                   : UTC 2016-12-03 23:00:04
Writing application            : mkvmerge v8.3.0 ('Over the Horizon') 64bit
Writing library                : libebml v1.3.1 + libmatroska v1.4.2

Video
ID                             : 1
Format                         : AVC
Format/Info                    : Advanced Video Codec
Format profile                 : [email protected]
Format settings, CABAC         : Yes
Format settings, ReFrames      : 5 frames
Codec ID                       : V_MPEG4/ISO/AVC
Duration                       : 1 h 40 min
Bit rate                       : 949 kb/s
Width                          : 1 280 pixels
Height                         : 536 pixels
Display aspect ratio           : 2.40:1
Frame rate mode                : Constant
Frame rate                     : 23.976 (24000/1001) FPS
Color space                    : YUV
Chroma subsampling             : 4:2:0
Bit depth                      : 8 bits
Scan type                      : Progressive
Bits/(Pixel*Frame)             : 0.058
Stream size                    : 685 MiB (81%)


Audio
ID                             : 2
Format                         : AC-3
Format/Info                    : Audio Coding 3
Mode extension                 : CM (complete main)
Format settings, Endianness    : Big
Codec ID                       : A_AC3
Duration                       : 1 h 40 min
Bit rate mode                  : Constant
Bit rate                       : 224 kb/s
Channel(s)                     : 2 channels
Channel positions              : Front: L R
Sampling rate                  : 44.1 kHz
Frame rate                     : 28.711 FPS (1536 spf)
Bit depth                      : 16 bits
Compression mode               : Lossy
Stream size                    : 162 MiB (19%)
Language                       : Spanish
Default                        : Yes
Forced                         : No

Text
ID                             : 3
Format                         : UTF-8
Codec ID                       : S_TEXT/UTF8
Codec ID/Info                  : UTF-8 Plain Text
Duration                       : 1 h 35 min
Bit rate                       : 89 b/s
Count of elements              : 1671
Stream size                    : 62.1 KiB (0%)
Language                       : Spanish
Default                        : Yes
Forced                         : No





















descargar peliculas - descargar programas
30 Puntos Score: 10/10
Visitas: 1352 Favoritos: 3
Ver los usuarios que votaron...
7 Comentarios El Club de las madres rebeldes [Latino] 720p Mega

Cita cesarbbcc: Mostrar
Amigo no aparece la parte 1 rar  
@Piter48 revisa bien acabo de checar y si me aparece
Gracias !!   +10
Para dejar un comentario Registrate! o.. eres ya usuario? Accede!
Facebook Identi