The 9th Life of Louis Drax 720p sub

The 9th Life of Louis Drax 720p sub




SIPNOPSIS: La historia comienza en el noveno cumpleaños de Louis Drax (Aiden Longworth), cuando una caída casi mortal por un barranco es la culminación de una vida accidentada. El doctor Allan Pascal (Jamie Dornan) investiga las extrañas circunstancias que rodean el accidente y las oscuras coincidencias que plagaron su vida.

REPARTO:The 9th Life of Louis Drax es una próxima película de suspenso basada en la novela homónima de Liz Jensen. Está protagonizada por Jamie Dornan, Sarah Gadon, Aiden Longworth, Oliver Platt, Molly Parker, Julian Wadham, Jane McGregor, Barbara Hershey y Aaron Paul


INFO:
Format                      : MPEG-4
Format profile              : Base Media
Codec ID                    : isom (isom/iso2/avc1/mp41)
File size                   : 792 MiB
Duration                    : 1 h 48 min
Overall bit rate            : 1 023 kb/s
Writing application         : Lavf57.48.101

Video
ID                          : 1
Format                      : AVC
Format/Info                 : Advanced Video Codec
Format profile              : [email protected]
Format settings, CABAC      : Yes
Format settings, ReFrames   : 4 frames
Codec ID                    : avc1
Codec ID/Info               : Advanced Video Coding
Duration                    : 1 h 48 min
Bit rate                    : 900 kb/s
Width                       : 1 280 pixels
Height                      : 534 pixels
Display aspect ratio        : 2.40:1
Original display aspect rat : 2.40:1
Frame rate mode             : Constant
Frame rate                  : 23.976 FPS
Color space                 : YUV
Chroma subsampling          : 4:2:0
Bit depth                   : 8 bits
Scan type                   : Progressive
Bits/(Pixel*Frame)          : 0.055
Stream size                 : 696 MiB (88%)
Writing library             : x264 core 148
Audio
ID                          : 2
Format                      : AAC
Format/Info                 : Advanced Audio Codec
Format profile              : LC
Codec ID                    : 40
Duration                    : 1 h 48 min
Bit rate mode               : Constant
Bit rate                    : 116 kb/s
Channel(s)                  : 2 channels
Channel positions           : Front: L R
Sampling rate               : 48.0 kHz
Frame rate                  : 46.875 FPS (1024 spf)
Compression mode            : Lossy
Stream size                 : 89.9 MiB (11%)
Default                     : Yes
Alternate group             : 1
video formato: mp4
Audio: ingles
Subtitulos: español latino  archivo aparte
sin pass.
enlace:  Mega
archivo tipo: rar
peso:789 megas
mi primer post se agradecen todos los comentarios.










descargar peliculas - descargar programas
30 Puntos Score: 10/10
Visitas: 1013 Favoritos: 0
Ver los usuarios que votaron...
5 Comentarios The 9th Life of Louis Drax 720p sub
Interesante.....Gracias!!
a ti mi primer post se agradecen criticas
@fisheye815 , @MrGrosso , @epalada  gracias por los comentarios y puntos
Parece interesante! me la bajo gracias!!  
@MrGrosso
@BobMarley7   gracias por los puntos acepto criticas y sugerencias para mejorar
Para dejar un comentario Registrate! o.. eres ya usuario? Accede!
Facebook Identi