La Habitacion [2015] 720p Brrip Latino Mega

La Habitacion [2015] 720p Brrip Latino Mega







Título original:    Room
Año:   2015
Duración:    118 min.
País:    Irlanda Irlanda
Director:    Lenny Abrahamson
Guión:    Emma Donoghue (Novela: Emma Donoghue)
Música:    Stephen Rennicks
Fotografía:    Danny Cohen
Reparto:    Brie Larson, Jacob Tremblay, Joan Allen, William H. Macy, Megan Park, Amanda Brugel, Sean Bridgers, Joe Pingue, Chantelle Chung, Randal Edwards, Jack Fulton, Kate Drummond
Productora:    Coproducción Irlanda-Canadá-GB; Film4 / Irish Film Board / Telefilm Canada / Filmnation Entertainment / Element Pictures / No Trace Camping
Género:    Drama | Secuestros / Desapariciones. Familia. Infancia

Sinopsis

    Para Jack, un niño de cinco años, la habitación es el mundo entero, el lugar donde nació, donde come, juega y aprende con su madre. Por la noche, mamá lo pone a dormir en el armario, por si viene el viejo Nick. La habitación es el hogar de Jack, mientras que para su madre es el cubículo donde lleva siete años encerrada, secuestrada desde los diecinueve años. Con gran tesón e ingenio, la joven ha creado en ese reducido espacio una vida para su hijo, y su amor por él es lo único que le permite soportar lo insoportable. Sin embargo, la curiosidad de Jack va en aumento, a la par que la desesperación de su madre, que sabe que la habitación no podrá contener ambas cosas por mucho más tiempo.




General
Room.2015.720p.BluRay.Latino.mkv
Format                         : Matroska
Format version                 : Version 4 / Version 2
File size                      : 1.08 GiB
Duration                       : 1 h 57 min
Overall bit rate               : 1 315 kb/s
Encoded date                   : UTC 2017-01-19 21:19:54
Writing application            : mkvmerge v8.3.0 ('Over the Horizon') 64bit
Writing library                : libebml v1.3.1 + libmatroska v1.4.2

Video
ID                             : 1
Format                         : AVC
Format/Info                    : Advanced Video Codec
Format profile                 : [email protected]
Format settings, CABAC         : Yes
Format settings, ReFrames      : 5 frames
Codec ID                       : V_MPEG4/ISO/AVC
Duration                       : 1 h 57 min
Bit rate                       : 1 122 kb/s
Width                          : 1 280 pixels
Height                         : 536 pixels
Display aspect ratio           : 2.40:1
Frame rate mode                : Constant
Frame rate                     : 23.976 (24000/1001) FPS
Color space                    : YUV
Chroma subsampling             : 4:2:0
Bit depth                      : 8 bits
Scan type                      : Progressive
Bits/(Pixel*Frame)             : 0.068
Stream size                    : 944 MiB (85%)
Default                        : No
Forced                         : No

Audio
ID                             : 3
Format                         : AC-3
Format/Info                    : Audio Coding 3
Mode extension                 : CM (complete main)
Format settings, Endianness    : Big
Codec ID                       : A_AC3
Duration                       : 1 h 57 min
Bit rate mode                  : Constant
Bit rate                       : 192 kb/s
Channel(s)                     : 2 channels
Channel positions              : Front: L R
Sampling rate                  : 44.1 kHz
Frame rate                     : 28.711 FPS (1536 spf)
Bit depth                      : 16 bits
Compression mode               : Lossy
Delay relative to video        : 31 ms
Stream size                    : 161 MiB (15%)
Language                       : Spanish
Default                        : Yes
Forced                         : No

Text
ID                             : 2
Format                         : UTF-8
Codec ID                       : S_TEXT/UTF8
Codec ID/Info                  : UTF-8 Plain Text
Duration                       : 1 h 52 min
Bit rate                       : 51 b/s
Count of elements              : 1757
Stream size                    : 42.4 KiB (0%)
Default                        : Yes
Forced                         : No



















peliculas - programas
96 Puntos Score: 8.7/10
Visitas: 2448 Favoritos: 8
Ver los usuarios que votaron...
7 Comentarios La Habitacion [2015] 720p Brrip Latino Mega
Se ve interesante, te dejo unos puntillos. Gracias por el aporte.  
muchas gracias  
Gracias amigo  
Gracias, me la recomedaron y la encontre por aqui. Muchas Gracias
Para dejar un comentario Registrate! o.. eres ya usuario? Accede!
Facebook Identi