Max Steel [2016] 720p Brrip Subtitulada Zippyshare

Max Steel [2016] 720p Brrip Subtitulada Zippyshare





Título original:  Max Steel
Año:   2016
Duración:   92 min.
País:   Estados Unidos Estados Unidos
Director:   Stewart Hendler
Guión:  Christopher Yost
Música:  Nathan Lanier
Fotografía:  Brett Pawlak
Reparto:  Ben Winchell, Ana Villafañe, Andy Garcia, Maria Bello, Josh Brener, Mike Doyle, Al Mitchell, Phillip DeVona, Billy Slaughter, Megan Hayes
Productora:  Coproducción Estados Unidos-Reino Unido; Dolphin Entertainment / Mattel Entertainment / Open Road Films
Género:  Ciencia ficción. Acción | Superhéroes
Grupos:  Max Steel Novedad

Sinopsis

    Un adolescente y un alienígena deben fundirse en un solo ser: el superhéroe que da título a la película.




General
Max.Steel.2016.720p.BluRay.x264.mkv
Format                         : Matroska
Format version                 : Version 4 / Version 2
File size                      : 687 MiB
Duration                       : 1 h 32 min
Overall bit rate               : 1 039 kb/s
Encoded date                   : UTC 2017-01-27 14:27:55
Writing application            : mkvmerge v8.3.0 ('Over the Horizon') 64bit
Writing library                : libebml v1.3.1 + libmatroska v1.4.2

Video
ID                             : 1
Format                         : AVC
Format/Info                    : Advanced Video Codec
Format profile                 : [email protected]
Format settings, CABAC         : Yes
Format settings, ReFrames      : 4 frames
Codec ID                       : V_MPEG4/ISO/AVC
Duration                       : 1 h 32 min
Bit rate                       : 900 kb/s
Width                          : 1 280 pixels
Height                         : 534 pixels
Display aspect ratio           : 2.40:1
Original display aspect ratio  : 2.40:1
Frame rate mode                : Constant
Frame rate                     : 23.976 FPS
Color space                    : YUV
Chroma subsampling             : 4:2:0
Bit depth                      : 8 bits
Scan type                      : Progressive
Bits/(Pixel*Frame)             : 0.055
Stream size                    : 595 MiB (87%)
Writing library                : x264 core 148
Default                        : Yes
Forced                         : No

Audio
ID                             : 2
Format                         : AAC
Format/Info                    : Advanced Audio Codec
Format profile                 : LC
Codec ID                       : A_AAC
Duration                       : 1 h 32 min
Bit rate                       : 137 kb/s
Channel(s)                     : 2 channels
Channel positions              : Front: L R
Sampling rate                  : 48.0 kHz
Frame rate                     : 46.875 FPS (1024 spf)
Compression mode               : Lossy
Delay relative to video        : -43 ms
Stream size                    : 90.5 MiB (13%)
Default                        : Yes
Forced                         : No

Text
ID                             : 3
Format                         : UTF-8
Codec ID                       : S_TEXT/UTF8
Codec ID/Info                  : UTF-8 Plain Text
Duration                       : 1 h 25 min
Bit rate                       : 54 b/s
Count of elements              : 1027
Stream size                    : 33.8 KiB (0%)
Language                       : Spanish
Default                        : Yes
Forced                         : No





















FUENTE: YTS


DEJA TU COMENTARIO

descargar peliculas - descargar programas
40 Puntos Score: 10/10
Visitas: 1496 Favoritos: 5
Ver los usuarios que votaron...
2 Comentarios Max Steel [2016] 720p Brrip Subtitulada Zippyshare
+10 gracias x el aporte
Para dejar un comentario Registrate! o.. eres ya usuario? Accede!
Facebook Identi