Trolls [2016] Brrip 720p Latino Mega

Trolls [2016] Brrip 720p Latino Mega





Título original:   Trolls
Año:   2016
Duración:   93 min.
País:   Estados Unidos Estados Unidos
Director:   Mike Mitchell
Guión:   Erica Rivinoja
Música:   Christophe Beck
Fotografía:  Yong Duk Jhun
Reparto:   Animation
Productora:   DreamWorks Animation / 20th Century Fox
Género:   Infantil. Animación. Fantástico | 3-D
Grupos:  DreamWorks Animation (Películas) Novedad

Sinopsis

    Conocidos por sus pelos de colores, locos y mágicos, los Trolls son las criaturas más felices y alegres que irrumpen en el mundo de la canción. Pero su mundo de arco iris y cupcakes cambiará para siempre cuando su líder Poppy (Anna Kendrick) debe embarcarse en una misión de rescate que la llevará muy lejos del único mundo que siempre ha conocido.





General
Trolls.2016.720p.BluRay.mkv
Format                         : Matroska
Format version                 : Version 4 / Version 2
File size                      : 944 MiB
Duration                       : 1 h 32 min
Overall bit rate               : 1 428 kb/s
Encoded date                   : UTC 2017-01-25 17:03:21
Writing application            : mkvmerge v8.3.0 ('Over the Horizon') 64bit
Writing library                : libebml v1.3.1 + libmatroska v1.4.2

Video
ID                             : 1
Format                         : AVC
Format/Info                    : Advanced Video Codec
Format profile                 : [email protected]
Format settings, CABAC         : Yes
Format settings, ReFrames      : 5 frames
Codec ID                       : V_MPEG4/ISO/AVC
Duration                       : 1 h 32 min
Bit rate                       : 1 221 kb/s
Width                          : 1 280 pixels
Height                         : 544 pixels
Display aspect ratio           : 2.35:1
Frame rate mode                : Constant
Frame rate                     : 23.976 (24000/1001) FPS
Color space                    : YUV
Chroma subsampling             : 4:2:0
Bit depth                      : 8 bits
Scan type                      : Progressive
Bits/(Pixel*Frame)             : 0.073
Stream size                    : 774 MiB (82%)
Writing library                : x264 core 133 r2334 a3ac64b
Default                        : Yes
Forced                         : No

Audio
ID                             : 2
Format                         : AC-3
Format/Info                    : Audio Coding 3
Mode extension                 : CM (complete main)
Format settings, Endianness    : Big
Codec ID                       : A_AC3
Duration                       : 1 h 32 min
Bit rate mode                  : Constant
Bit rate                       : 256 kb/s
Channel(s)                     : 2 channels
Channel positions              : Front: L R
Sampling rate                  : 48.0 kHz
Frame rate                     : 31.250 FPS (1536 spf)
Bit depth                      : 16 bits
Compression mode               : Lossy
Delay relative to video        : 1 s 0 ms
Stream size                    : 169 MiB (18%)
Language                       : Spanish
Default                        : Yes
Forced                         : No

















descargar peliculas - descargar programas
88 Puntos Score: 8.8/10
Visitas: 3493 Favoritos: 2
Ver los usuarios que votaron...
10 Comentarios Trolls [2016] Brrip 720p Latino Mega
Muchas gracias amigo! me evitaste ir al cine con los sobrinos
Muchas gracias brother  
muchas gracias se te agradece
Excelente aporte... Muchas gracias por compartir...  
Para dejar un comentario Registrate! o.. eres ya usuario? Accede!
Facebook Identi