Cigueñas [2016] Brrip 720p Latino Mega

Cigueñas [2016] Brrip 720p Latino Mega







Título original:  Storks
Año:  2016
Duración:  87 min.
País:  Estados Unidos Estados Unidos
Director:  Nicholas Stoller, Doug Sweetland
Guión:  Nicholas Stoller
Música:  Jeff Danna, Mychael Danna
Fotografía:  Simon Dunsdon
Reparto:  Animation
Productora:  Warner Animation Group / Warner Bros. Animation
Género:  Animación. Comedia. Infantil | Pájaros. Familia. 3-D


Sinopsis

En Montaña Cigüeña, viven las cigüeñas que hace tiempo enviaban bebés a los padres de todo el mundo. Ahora distribuyen los paquetes de una compañía mundial de Internet. Junior, la mejor cigüeña repartidora de la compañía, está a punto de conseguir un ascenso, pero accidentalemete activa la Máquina de Producción de Bebés y el resultado es una adorable niña ilegal. Para evitar que su jefe se entere, Junior y su amiga Tulip, el único ser humano de Montaña Cigüeña, se apresuran a entregar el bebé en un viaje salvaje que podría afectar a la integridad de más de una familia y restablecer la verdadera misión de las cigüeñas en el mundo.





General
Cigueñas.2016.720p.BRRip.mkv
Format                         : Matroska
Format version                 : Version 4 / Version 2
File size                      : 718 MiB
Duration                       : 1 h 26 min
Overall bit rate               : 1 155 kb/s
Encoded date                   : UTC 2016-12-07 19:16:08
Writing application            : mkvmerge v8.3.0 ('Over the Horizon') 64bit
Writing library                : libebml v1.3.1 + libmatroska v1.4.2

Video
ID                             : 1
Format                         : AVC
Format/Info                    : Advanced Video Codec
Format profile                 : [email protected]
Format settings, CABAC         : Yes
Format settings, ReFrames      : 5 frames
Codec ID                       : V_MPEG4/ISO/AVC
Duration                       : 1 h 26 min
Bit rate                       : 949 kb/s
Width                          : 1 280 pixels
Height                         : 536 pixels
Display aspect ratio           : 2.40:1
Frame rate mode                : Constant
Frame rate                     : 23.976 (24000/1001) FPS
Color space                    : YUV
Chroma subsampling             : 4:2:0
Bit depth                      : 8 bits
Scan type                      : Progressive
Bits/(Pixel*Frame)             : 0.058
Stream size                    : 590 MiB (82%)
Writing library                : x264 core 148 r2638 7599210
Default                        : Yes
Forced                         : No
Color range                    : Limited
Color primaries                : BT.709
Matrix coefficients            : BT.709

Audio
ID                             : 3
Format                         : AC-3
Format/Info                    : Audio Coding 3
Mode extension                 : CM (complete main)
Format settings, Endianness    : Big
Codec ID                       : A_AC3
Duration                       : 1 h 26 min
Bit rate mode                  : Constant
Bit rate                       : 192 kb/s
Channel(s)                     : 2 channels
Channel positions              : Front: L R
Sampling rate                  : 44.1 kHz
Frame rate                     : 28.711 FPS (1536 spf)
Bit depth                      : 16 bits
Compression mode               : Lossy
Stream size                    : 119 MiB (17%)
Language                       : Spanish
Default                        : Yes
Forced                         : No

Text
ID                             : 2
Format                         : PGS
Muxing mode                    : zlib
Codec ID                       : S_HDMV/PGS
Codec ID/Info                  : Picture based subtitle format used on BDs/HD-DVDs
Duration                       : 1 h 26 min
Bit rate                       : 11.9 kb/s
Count of elements              : 2782
Stream size                    : 7.34 MiB (1%)
Language                       : Spanish
Default                        : Yes
Forced                         : No



















descargar peliculas - descargar programas
50 Puntos Score: 10/10
Visitas: 2948 Favoritos: 5
Ver los usuarios que votaron...
7 Comentarios Cigueñas [2016] Brrip 720p Latino Mega
gracias x el aporte, cuando la descargue +10  
gracias!!   bajando...
¡¡¡¡¡Gracias luis_f!!!!!
¡No tendrás solo el audio "Español México"?
Para dejar un comentario Registrate! o.. eres ya usuario? Accede!
Facebook Identi