Groizer X contra los monstruos



Groizer X contra los monstruos



Ave cesar gente de identi hoy les dejo una pelicula basada en un serie, que por lo menos para mi paso sin pena ni gloria, pero me lo pideron (perdon pero no me acuerdo el user) y ya que estoy con los dvd de 
enjoy!!!

-.¸-,.-~*'¨¯R¨'*·h~-.i¸-,N.-~*'¨o¯¨'C·~-M¸-,.C*'¨¯¨'*·~-.¸-
SINOPSIS

Después de un aterrizaje forzoso en la Tierra, los tripulantes de una nave de investigación proveniente del planeta Gailar, deciden permanecer hibernando y así esperar a ser rescatados. Pruebas nucleares realizadas por humanos dañan el sistema y algunos de los extraterrestres despiertan. Sin poder regresar a su lugar de origen, los Gailarianos deciden conquistar la Tierra. Tan sólo podrá detenerlos un científico, que ha diseñado una nave capaz de transformarse en un gigantesco robot.


Titulo original: Groizer X (Guroizâ X)

Nacionalidad: Japón

Año: 1976

Duración: 75 min

Director: Hiroshi Taisenji


Producción: Dynamic Animation, Knak Animation

Música: Koh Ikeda, Kuni Kawachi

 


proyecto 
Elessar  gorguekabutto

...Elessar consiguió una versión DVD de esta película que procedía de Alemania, tras el montaje comprobo que había alguna parte que no existía en esta versión de dvd y procedió a incorporar una parte de la versión en VHS que tenia, quedando un magnifico proyecto gorguekabutto mejoro un poco este proyecto.

Datos 
Format : AVI
File size : 712 MiB
Duration : 1h 11mn
Overall bit rate : 1 396 Kbps
Movie name : maxinger x cntra los monstruos (groixer x)


Video
ID : 0
Format : MPEG-4 Visual
Format profile : Advanced [email protected]
Format settings, BVOP : 2
Format settings, QPel : No
Format settings, GMC : No warppoints
Format settings, Matrix : Default (H.263)
Muxing mode : Packed bitstream
Codec ID : XVID
Codec ID/Hint : XviD
Duration : 1h 11mn
Bit rate : 1 194 Kbps
Width : 720 pixels
Height : 576 pixels
Display aspect ratio : 5:4
Frame rate : 25.000 fps
Standard : PAL
Color space : YUV
Chroma subsampling : 4:2:0
Bit depth : 8 bits
Scan type : Progressive
Compression mode : Lossy
Bits/(Pixel*Frame) : 0.115
Stream size : 609 MiB (86%)
Writing library : XviD 64

Audio
ID : 1
Format : MPEG Audio
Format version : Version 1
Format profile : Layer 3
Mode : Joint stereo
Mode extension : MS Stereo
Codec ID : 55
Codec ID/Hint : MP3
Duration : 1h 11mn
Bit rate mode : Constant
Bit rate : 192 Kbps
Channel(s) : 2 channels
Sampling rate : 48.0 KHz
Compression mode : Lossy
Stream size : 97.9 MiB (14%)
Alignment : Split accross interleaves
Interleave, duration : 40 ms (1.00 video frame)
Interleave, preload duration : 500 ms
Writing library : LAME3.96 (beta)






 a la izquiera versión Elessar a la Derecha version Kabuttera.







Enlaces De Descarga




Agradecimientos:
Elessar  gorguekabutto


los link no son mios solo comparto!

PD: comentarios que no correpondan con el protocolo de identi seran borrodos







descargar peliculas - descargar programas
10 Puntos Score: 5/10
Visitas: 1472 Favoritos: 7
Ver los usuarios que votaron...
9 Comentarios Groizer X contra los monstruos
gracias compañero. la miramos en canal nueve. que tiempo. por cierto la serie ni a palo  la tenes , no ?. no puedo encontrar nada. ni en el portal de garada. en fin se agradece  
Gracias por compartir
Gracias.
Saludos.
En España se proyectó en 1978 en las salas de cine una película titulada Maxinger X contra los monstruos, un largometraje hecho a partir de varios episodios de la serie original. Aprovechando el éxito de Mazinger Z, el personaje fue renombrado como Maxinger X. gran anime
La serie solo se puede encontrar completa en portuguez
gracias, excelente aporte
amigo no tendras por ahi una que se llama Godnnadar creo que se escribe asi  
Para dejar un comentario Registrate! o.. eres ya usuario? Accede!
Facebook Identi