Oops.. Este post tiene los enlaces eliminados!

Identi revisa las denuncias de los usuarios en busca de enlaces eliminados que no dejan descargar los archivos, este mensaje te informa que este post que estas viendo tiene los enlaces eliminados.

Usa el Buscador

Por favor, te recomendamos que uses el buscador para encontrar más alternativas.

Moisés Los 10 Mandamientos 125/176[TrueHD720p]Dual

  • Categoría: Reciclaje
  • Publicado hace más de 9 meses
Moisés: Los 10 Mandamientos 125 de 176 [TrueHD 720p] Audio Dual Audio Latino + Portugués (Brasil)












Moisés y los diez mandamientos es una telenovela brasileña que está basada en la historia bíblica de Moisés.


La historia comienza en la ciudad de Pi-Ramsés, en Egipto, aproximadamente en el año 1.300 A.C., cuando el poderoso faraón Seti I manda a asesinar a todos los recién nacidos de sexo masculino de las familias hebreas.











Características

Video
Format                      : AVC
Format/Info                 : Advanced Video Codec
Format profile              : [email protected]
Format settings, ReFrames   : 9 frames
Codec ID                    : V_MPEG4/ISO/AVC
Duration                    : 59 min
Bit rate                    : 4 031 kb/s
Width                       : 1 280 pixels
Height                      : 720 pixels
Display aspect ratio        : 16:9
Stream size                 : 1.68 GiB (92%)

Audio #1
Bit rate                    : 128 kb/s
Channel(s)                  : 2 channels
Sampling rate               : 44.1 kHz
Stream size                 : 54.7 MiB (3%)
Language                    : Spanish

Audio #2
Bit rate                    : 128 kb/s
Channel(s)                  : 2 channels
Sampling rate               : 44.1 kHz
Stream size                 : 54.7 MiB (3%)
Language                    : Portuguese









Capturas en 1080p, tomadas desde mi monitor































Password/Contraseña: Masterwe






Prueba y Comenta..!

 

1- De esa forma me ayudas a mejorar mis aportes
2- Ayudas a los nuevos visitantes a ver si el aporte es bueno
3- Nos ayudamos todos


Para mas información y descargas visítenme en mi perfil

Sígueme y seras el primero en saber de mis aportes





descargar peliculas - descargar programas
120 Puntos Score: 10/10
Visitas: 1739 Favoritos: 2
Ver los usuarios que votaron...
20 Comentarios Moisés Los 10 Mandamientos 125/176[TrueHD720p]Dual
Muchas gracias +10
gracias amigo por el aporte.. pero no se agregan a Jdownloader
@beyond2016 @samparra13 link de descarga actualizado.
Gracias @MasterWe  muy esperado el aportazo!!! Siempre, con la excelente calidad que te caracteriza!! Felicidades!!
Apreciado @MasterWe el enlace que abre es de los links del 114 al 125.
Segun entiendo. Moises termina en el 176? Por casualidad vos tenes tambien la segunda parte de Moises???
@Teodoro70 Así es, la tengo completa, pero aun no he sincronizado los audios de los capítulos 126 en adelante, cuando lo haga los compartiré.
muchas gracias  
Muchas gracias genial tu aporte!!
Gracias por avisar. Una consulta que fue lo que cambio?
Gracias mi hermano aqui a descargar lo mejor ... Saludos +10
Muchisimas gracias hermano espero que puedas terminar de subir esta serie
Vas a subir lo que falta?

GRACIAS!!!
Estoy escribiendo la contraseña MasterWe pero me indica que no es la contraseña.  
@MasterWe
Enlaces caídos  
Para dejar un comentario Registrate! o.. eres ya usuario? Accede!
Facebook Identi