El Jefe [2010 - Audio Latino - Rmvb - DvdRip]






EL JEFE [LATINO DvdRip RMVB]





TÍTULO ORIGINAL: El Jefe
AÑO: 2010
DURACIÓN: 90 min.
PAÍS: Colombia
DIRECTOR: Jaime Escallón Buraglia
REPARTO: Carlos Hurtado,  Katherine Porto,  Mirta Busnelli,  Marcela Benjumea,  Mariano Castro,  Jimmy Vásquez,  Julián Román,  Ramsés Ramos,  Waldo Urrego,  Hugo Gómez,  Gustavo Angel,  Marco Antonio López,  Valentina Gómez,  Marcela Bustamante
GÉNERO: Comedia


[/U]

Ricardo Osorio, jefe de Recursos Humanos de Rioplatense Limitada, vive atascado entre un trabajo que detesta y un hogar que lo deprime. El llanto incesante de su recién nacido, las quejas de su mujer, las peleas con los empleados y las órdenes absurdas de su nuevo jefe lo tienen al borde del abismo. Afortunadamente encuentra algo de felicidad en las jugosas tetas de Ángela, la mejor amiga de su esposa. Dispuesto a cambiar su vida, Osorio toma sus ahorros y comienza una cadena de engaños y traiciones con el fin de escapar junto a su amante.




Format                 : RealMedia
File size                : 481 MiB
Duration               : 1h 35mn
Overall bit rate           : 696 Kbps

Video
ID                   : 0
Format                 : RealVideo 4
Codec ID               : RV40
Codec ID/Info            : Based on AVC (H.264), Real Player 9
Duration               : 1h 35mn
Bit rate               : 600 Kbps
Width                  : 640 pixels
Height                 : 352 pixels
Display aspect ratio         : 16:9
Frame rate               : 23.976 fps
Bits/(Pixel*Frame)         : 0.111
Stream size              : 411 MiB (85%)

Audio
ID                   : 1
Format                 : Cooker
Codec ID               : cook
Codec ID/Info            : Based on G.722.1, Real Player 6
Duration               : 1h 35mn
Bit rate               : 96.5 Kbps
Channel(s)               : 2 channels
Sampling rate            : 44.1 KHz
Bit depth                : 16 bits
Stream size              : 66.1 MiB (14%)











www.identi.li






NO TE OLVIDES DE:





NO TE OLVIDES DE COMENTAR
El Jefe [2010 - Audio Latino - Rmvb - DvdRip]
10 Puntos Score: 5/10
Visitas: 2350 Favoritos: 0
Ver los usuarios que votaron...
10 Comentarios El Jefe [2010 - Audio Latino - Rmvb - DvdRip]
Cita sr_mediafire: Mostrar
Excelente como siempre!!!   recomendado!!! y mis ?
Cita sawadypap: Mostrar
Gracias,la estoy descargando .
Cita andreselmejor: Mostrar
Disfrutala  
 :cool:que chevere
Gracias por el aporte, buenisimo cine
Para dejar un comentario Registrate! o.. eres ya usuario? Accede!