the_dalas
"Stand By"

[FLAC] Modern Talking - 30 [Album + Bonus]

Modern Talking
30

(The New Best Of Album!)





TRACKLIST


CD 1
1. Just We Two (NEW Hit-Remix)
2. TV Makes The Superstar (Remastered)
3. Juliet (Remastered)
4. Ready For The Victory (Remastered)
5. Last Exit To Brooklyn (Remastered)
6. Win The Race (Remastered)
7. Don`t Take Away My Heart (Remastered)
8. China In Her Eyes (Remastered)
9. Sexy Sexy Lover (Remastered)
10. You Are Not Alone (Remastered)
11. Brother Louie `98 (Remastered)
12. You`re My Heart You`re My Soul `98 (Remastered)
13. In 100 Years (Remastered)
14. Jet Airliner (Remastered)
15. Give Me Peace On Earth (Remastered)
16. Geronimo`s Cadillac (Remastered)
17. Atlantic Is Calling (SOS For Love) Remastered
18. Brother Louie (Remastered)
19. Cheri Cheri Lady (Remastered)
20. You Can Win If You Want (Remastered)
21. You`re My Heart You`re My Soul (Remastered)

CD 2                                                                                    
1.         Brother Louie (Bassflow 3.0 Single Mix)
2.      Give Me Peace On Earth (New Re-Production)
3.          Just Like An Angel (New Re-Production)
4. You`re The Lady Of My Heart (New Re-Production)
5.         TV Makes The Superstar (Unreleased Mix)
6.      Brother Louie 99 (DJ Cappiccio Radio Edit)
7.       Brother Louie (Bassflow 3.0 Extended Mix)
8.                  You`re My Heart You`re My Soul
(Paul Masterson Dub)

9.                  You`re My Heart You`re My Soul
(Extended Version 80s Remaster By Blank & Jones)

10. Modern Talking “30th Anniversary Megamix 2014/2015?*
*30:00 Min. (incluyen: Just We Two, TV Makes The Superstar, Juliet, Ready For The Victory, Last Exit To Brooklyn, Win The Race, Don`t Take Away My Heart,China In Her eyes, Sexy Sexy Lover,You Are Not Alone, Brother Louie 98, You`re My Heart You`re My Soul `98, In 100 Years, Jet Airliner, Give Me Peace On Earth, Geronimos Cadillac, Atlantis Is Calling, Brother Louie, Cheri Cheri Lady, You Can Win If You Want, You’re My Heart You’re My Soul).



INFO


Tras once años de “pausa” y al cumplirse exáctamente treinta años desde su nacimiento, vuelve el duo de música pop europeo más exitoso de los años 80 y 90: los Modern Talking . Lo hacen con un album llamado “30”. Estos 2 CD's de coleccion incluyen temas remasterisados.






CUE [CD1]

Cita: Mostrar

CUE [CD2]

Cita: Mostrar

Audio
Format                      : FLAC
Format/Info                 : Free Lossless Audio Codec
Bit rate mode               : Variable
Bit rate                    : 1 197 Kbps
Channel(s)                  : 2 channels
Channel positions           : Front: L R
Sampling rate               : 44.1 KHz
Bit depth                   : 16 bits
Stream size                 : 1 210 MiB


DESCARGA POR MEGA



*BONUS*


Modern Talking
Sexy Sexy Lover





TRACKLIST


1. Sexy Sexy Lover (feat. Eric Singleton) (Rap Version)             3:10
2. Sexy Sexy Lover (Vocal Version)                                  3:33
3. Sexy Sexy Lover (feat. Eric Singleton) (Extended Rap Version)    4:59
4. Just Close Your Eyes                                             4:17


Sexy, Sexy Lover es el segundo sencillo del octavo álbum de Modern Talking Alone.


CUE
Cita: Mostrar

Audio
Format                      : FLAC
Format/Info                 : Free Lossless Audio Codec
Bit rate mode               : Variable
Bit rate                    : 991 Kbps
Channel(s)                  : 2 channels
Channel positions           : Front: L R
Sampling rate               : 44.1 KHz
Bit depth                   : 16 bits
Stream size                 : 113 MiB


DESCARGA POR MEGA

Gran grupo que trae recuerdos de aquellos años .

Mas que los puntos es tu comentario lo que me motiva a seguir compartiendo. no te limites a solo descargarlo, agradecer no cuesta .

The_Dalas

peliculas - programas
27 Puntos Score: 6.8/10
Visitas: 613 Favoritos: 3
Ver los usuarios que votaron...
12 Comentarios [FLAC] Modern Talking - 30 [Album + Bonus]
Se agradece amigo, muchas gracias
Muy bueno, gracias
Gracias UPLOADER
que barbaro....!!! ojala lleguen + uploaders como ud ... larga vida al formato flac !!!  
Gran Aporte Amigo  
se agrade el aporte
gracias por tan buenisimo aporte, que Dios te bendiga hermano.
@_Atlas_ De nada mano disfrutalo  
@carlosborr A ti tambien gracias por pasar y comentar  
@Waldox70 Disfrutalo hermano  
@robert1916 Gracias por el cumplido  
@shamamoto Gracias man   y de echo hay varios que estan aportando temas en calidad
lossles que son muy buenos aqui en identi. y tambien larga vida al FLAC Hermano !!
@Racso_91 Disfrutalo man  
@alconchi De nada man  
@L0conet Gracias brother  

Y gacias a todos por pasar comentar y puntuar  
Hola amigo un favor porfavor me puede pasar el link por imbox.
@omarpozcar De nada   disfruta el apote. y gracias por pasar y comentar.
@wxcap Gracias por pasar, y lo siento bro pero no paso links. animate a descargarlos con JD o Mipony. suerte  
Para dejar un comentario Registrate! o.. eres ya usuario? Accede!
Facebook Identi