Friday ice cube chris tucker audio latino


Aqui les dejo esta pelicula no se si ya este posteada en latino, esta version es grabada de netflix y la calidad es regular ya que google chrome siempre a sido una mierda para reproducir video,el audio esta perfecto pero no le quedo a la version 720p por ser version extendida y ahora no tengo tiempo de sincronizar si alguien ocupa el audio solo, lo tengo en formato wav si lo quiere lo subo

A Craig lo han echado del trabajo, por un presunto hurto, de modo que incluso su único plan, en pocas palabras, el viernes es pasarse las horas muertas en el porche de su hogar con su compañero Smokey, que no hace más que fumarse la marihuana que ha de vender


Reparto
Ice Cube (Craig)
Chris Tucker (Smokey)
Nia Long (Debbie)
F. Gary Gray (Director



Capturas


Video
ID                                       : 0
Format                                   : MPEG-4 Visual
Format profile                           : Advanced [email protected]
Format settings, BVOP                    : 2
Format settings, QPel                    : No
Format settings, GMC                     : No warppoints
Format settings, Matrix                  : Default (MPEG)
Codec ID                                 : XVID
Codec ID/Hint                            : XviD
Duration                                 : 1h 31mn
Bit rate                                 : 1 523 Kbps
Width                                    : 720 pixels
Height                                   : 408 pixels
Display aspect ratio                     : 16:9
Frame rate                               : 23.976 fps
Color space                              : YUV
Chroma subsampling                       : 4:2:0
Bit depth                                : 8 bits
Scan type                                : Progressive
Compression mode                         : Lossy
Bits/(Pixel*Frame)                       : 0.216
Stream size                              : 995 MiB (92%)
Writing library                          : XviD 1.2.1 (UTC 2008-12-04)

Audio
ID                                       : 1
Format                                   : AC-3
Format/Info                              : Audio Coding 3
Mode extension                           : CM (complete main)
Format settings, Endianness              : Big
Codec ID                                 : 2000
Duration                                 : 1h 31mn
Bit rate mode                            : Constant
Bit rate                                 : 128 Kbps
Channel(s)                               : 2 channels
Channel positions                        : Front: L R
Sampling rate                            : 48.0 KHz
Bit depth                                : 16 bits
Compression mode                         : Lossy
Stream size                              : 83.6 MiB (8%)
Alignment                                : Split accross interleaves
Interleave, duration                     : 42 ms (1.00 video frame)
Interleave, preload duration             : 500 ms



Mega usar megadowloader


descargar peliculas - descargar programas
24 Puntos Score: 8/10
Visitas: 1777 Favoritos: 0
Ver los usuarios que votaron...
14 Comentarios Friday ice cube chris tucker audio latino
gracias amigo. Es bueno verte de vuelta. Felices fiestas!
no manchen la he buscado por mas de veinte anos en audio latino,gracias feliz navidad amigo,que regalazo
me canse de buscarla en latino por la web muchisimas gracias por este gran aporte
:up:Excelente!!!, compartí el audio latino y me encargaré de resincronizarlo y subirlo!
excelente aporte gracias amigo por compartirlo gracias de nuevo.
@Cesar_Cure saludos aqui de vuelta a ver que compartimos @marlorambo @El_Leska23 @biggordo ya tiene mas de un mes en netflix pero nadie se le ocurrio compartirla
oye amigo no tendras el link estoy desesperado por descargarla pero le doy ver links de descarga abro la publicidad espero y san los 18 segundos que dura en abrir y luego vuelve a iniciar el conteo y asi sucesivamente y no termina por mostrar los links nunca solo hacer el conteo una y otra vez lo he probado ya en 3 pc distintas en mi casa y pasa lo mismo por favor pasame el link te lo pido
@carlosex amigo tienes que inciar sesion o registrarte, a mi me pasaba lo mismo, inicie sesion y ya te salen los links
@rokce84 gracias siempre la intentaba descargar sin iniciar sesion y jamas me habia pasado eso,
 de haberlo sabido ,en fin gracias amigo
@carlosex ya la descargaste quieres los links
@juanw200 SI GRACIAS BRO YA LA DESCARGUE
me pase por el otro post de esta peli y los links ya estaban muertos... aquí si se puede bajar... gracias
Para dejar un comentario Registrate! o.. eres ya usuario? Accede!
Facebook Identi