the_dalas
"Stand By"

[FLAC] Billy Ocean - Suddenly [Album + Remixes]

Billy Ocean
Suddenly






TRACKLIST





INFO

Suddenly es el quinto album de estudio del recordado artista Billy Ocean, relanzado en 1984. incluia su primer mayor single pop de los US pop single "Caribbean Queen", el cual alcanzo ser el #1 en el Billboard Hot 100 Record chart.
CUE


Cita: Mostrar
Audio
Format                      : FLAC
Format/Info                 : Free Lossless Audio Codec
Bit rate mode               : Variable
Bit rate                    : 821 Kbps
Channel(s)                  : 2 channels
Channel positions           : Front: L R
Sampling rate               : 44.1 KHz
Bit depth                   : 16 bits
Stream size                 : 264 MiB
DESCARGA POR MEGA



BONUS

Billy Ocean
The 12 Mixes



TRACKLIST

1     Caribbean Queen (No More Love On The Run)          8:09
2     Suddenly                                           3:52
3     When The Going Gets Tough, The Tough Get Going     5:43
4     Love Zone (Extended Version)                       6:13
5     Loverboy                                           8:05



Audio
Format                      : FLAC
Format/Info                 : Free Lossless Audio Codec
Bit rate mode               : Variable
Bit rate                    : 880 Kbps
Channel(s)                  : 2 channels
Channel positions           : Front: L R
Sampling rate               : 44.1 KHz
Bit depth                   : 16 bits
Stream size                 : 206 MiB
DESCARGA POR MEGA

Comentar es agradecer

The_Dalas
peliculas - programas
30 Puntos Score: 10/10
Visitas: 340 Favoritos: 1
Ver los usuarios que votaron...
5 Comentarios [FLAC] Billy Ocean - Suddenly [Album + Remixes]
Muy bueno tu aporte se agradece por las rolas de unos de los grandes de su genero  
@the_dalas
no cagaron los mixes
@the_dalas
cargaron
@cainn estimado el link de los remixes estan bien. Intenta de nuevo. Suerte  
@the_dalas ...recibido, luego cumplo con el +10 gracias
Para dejar un comentario Registrate! o.. eres ya usuario? Accede!
Facebook Identi