shifo
"Solo la mejor calidad Bdremux BDrip 1080p-720p"

Sully [BrRip Latino/Ing MkV 1080p] [UB][MG]








FICHA TECNICA:

Título: Sully
Título original: Sully
Dirección: Clint Eastwood
País: Estados Unidos
Año: 2016
Fecha de estreno: 04/11/2016
Duración: -
Género: Drama, Biográfico
Reparto: Tom Hanks, Laura Linney, Jerry Ferrara, Aaron Eckhart, Autumn Reeser, Holt McCallany, Chris Bauer, Sam Huntington, Max Adler, Purva Bedi
Distribuidora: Warner Bros. Pictures
Productora: Warner Bros., Malpaso Productions, Flashlight Films


SINOPSIS:

El 15 de enero de 2009, el mundo fue testigo de ?El milagro del Hudson? cuando el Capitán ?Sully? Sullenberger hizo amerizar su avión averiado sobre las gélidas aguas del río Hudson, salvando la vida de las 155 personas a bordo. Sin embargo, mientras Sully era aclamado por el público y por los medios por su hazaña nunca vista en habilidades de aviación, se desarrolló una investigación que amenazaba con destruir su reputación y su carrera

DATOS TECNICOS:

Format                                   : Matroska
Format version                           : Version 4 / Version 2
File size                                : 8.23 GiB
Duration                                 : 1 h 35 min
Overall bit rate                         : 12.3 Mb/s
Movie name                               : Sully bychalo
Encoded date                             : UTC 2016-12-08 20:23:26
Writing application                      : mkvmerge v8.8.0 ('Wind at my back') 32bit
Writing library                          : libebml v1.3.3 + libmatroska v1.4.4

Video
ID                                       : 1
Format                                   : AVC
Format/Info                              : Advanced Video Codec
Format profile                           : [email protected]
Format settings, CABAC                   : Yes
Format settings, ReFrames                : 5 frames
Codec ID                                 : V_MPEG4/ISO/AVC
Duration                                 : 1 h 35 min
Bit rate                                 : 11.2 Mb/s
Width                                    : 1 920 pixels
Height                                   : 804 pixels
Display aspect ratio                     : 2.40:1
Frame rate mode                          : Constant
Frame rate                               : 23.976 (24000/1001) FPS
Color space                              : YUV
Chroma subsampling                       : 4:2:0
Bit depth                                : 8 bits
Scan type                                : Progressive
Bits/(Pixel*Frame)                       : 0.303
Stream size                              : 7.50 GiB (91%)
Language                                 : English
Default                                  : Yes
Forced                                   : No

Audio #1
ID                                       : 2
Format                                   : AC-3
Format/Info                              : Audio Coding 3
Mode extension                           : CM (complete main)
Format settings, Endianness              : Big
Codec ID                                 : A_AC3
Duration                                 : 1 h 35 min
Bit rate mode                            : Constant
Bit rate                                 : 448 kb/s
Channel(s)                               : 6 channels
Channel positions                        : Front: L C R, Side: L R, LFE
Sampling rate                            : 48.0 kHz
Frame rate                               : 31.250 FPS (1536 spf)
Compression mode                         : Lossy
Stream size                              : 307 MiB (4%)
Title                                    : Latino
Language                                 : Spanish
Default                                  : Yes
Forced                                   : No

Audio #2
ID                                       : 3
Format                                   : AC-3
Format/Info                              : Audio Coding 3
Mode extension                           : CM (complete main)
Format settings, Endianness              : Big
Codec ID                                 : A_AC3
Duration                                 : 1 h 35 min
Bit rate mode                            : Constant
Bit rate                                 : 640 kb/s
Channel(s)                               : 6 channels
Channel positions                        : Front: L C R, Side: L R, LFE
Sampling rate                            : 48.0 kHz
Frame rate                               : 31.250 FPS (1536 spf)
Compression mode                         : Lossy
Stream size                              : 439 MiB (5%)
Title                                    : Inglés
Language                                 : English
Default                                  : No
Forced                                   : No

Text #1
ID                                       : 4
Format                                   : UTF-8
Codec ID                                 : S_TEXT/UTF8
Codec ID/Info                            : UTF-8 Plain Text
Duration                                 : 1 h 28 min
Bit rate                                 : 2 b/s
Count of elements                        : 42
Stream size                              : 1.44 KiB (0%)
Title                                    : Español forzado
Language                                 : Spanish
Default                                  : Yes
Forced                                   : No

Text #2
ID                                       : 5
Format                                   : UTF-8
Codec ID                                 : S_TEXT/UTF8
Codec ID/Info                            : UTF-8 Plain Text
Duration                                 : 1 h 31 min
Bit rate                                 : 70 b/s
Count of elements                        : 1517
Stream size                              : 47.8 KiB (0%)
Title                                    : Español
Language                                 : Spanish
Default                                  : No
Forced                                   : No

Text #3
ID                                       : 6
Format                                   : UTF-8
Codec ID                                 : S_TEXT/UTF8
Codec ID/Info                            : UTF-8 Plain Text
Duration                                 : 1 h 35 min
Bit rate                                 : 80 b/s
Count of elements                        : 1642
Stream size                              : 56.3 KiB (0%)
Title                                    : Inglés
Language                                 : English
Default                                  : No
Forced                                   : No














ENLACES UPTOBOX


ENLACES MEGA

shifo
peliculas - programas
14 Puntos Score: 7/10
Visitas: 1963 Favoritos: 1
Ver los usuarios que votaron...
4 Comentarios Sully [BrRip Latino/Ing MkV 1080p] [UB][MG]
descargando de mega, me gustan las peliculas con ese peso porque me importa la calidad, gracias por compartir
@ander__mc si mi amigo se disfruta mejor, enjoy
Gracias por compartir, download perfect, +10
gracias por al Peli!  
Para dejar un comentario Registrate! o.. eres ya usuario? Accede!
Facebook Identi