shifo
"Solo la mejor calidad Bdremux BDrip 1080p-720p"

El Maestro del Dinero BrRip Latino 720p XviD [MG]

Cuando las Luces se Apagan BrRip Latino XvID 720p







FICHA TECNICA:

TÍTULO ORIGINAL: Money Monster
OTROS TÍTULOS: El Maestro del Dinero
AÑO: 2016
DURACIÓN: 100 min.
PAÍS: Estados Unidos
DIRECTOR: Jodie Foster
GUIÓN: Alan DiFiore, Jim Kouf, Jamie Linden (Historia: Alan DiFiore, Jim Kouf)
MÚSICA: Dominic Lewis
FOTOGRAFÍA: Matthew Libatique
REPARTO: George Clooney, Julia Roberts, Jack O’Connell, Caitriona Balfe, Dominic West, Giancarlo Esposito, Dennis Boutsikaris, Darri Ingolfsson, Christopher Denham, Anthony DeSando, Jennifer Dong, Ivan Martin, Cliff Moylan, Vernon Campbell, Joseph Oliveira, Chris Bauer
PRODUCTORA: Allegiance Theater / Smokehouse Pictures / Sony Pictures / TriStar Pictures
GÉNERO: Thriller. Drama | Secuestros / Desapariciones. Televisión
PREMIOS: 2016: Festival de Cannes: Sección oficial largometrajes (fuera de concurso)

SINOPSIS:

Lee Gates (George Clooney), un famoso presentador de televisión, es también uno de los principales gurús de Wall Street. Pero cuando el joven Kyle Budwell (Jack O’Connell), siguiendo sus consejos, pierde todo el dinero de su familia, decide secuestrar a Gates durante la emisión en directo de su programa.

DATOS TECNICOS:

Format                      : AVI
Format/Info                 : Audio Video Interleave
Format profile              : OpenDML
File size                   : 3.51 GiB
Duration                    : 1h 38mn
Overall bit rate            : 5 094 Kbps
Writing application         : VirtualDubMod 1.5.10.2 (build 2542/release)
Writing library             : VirtualDubMod build 2542/release

Video
ID                          : 0
Format                      : MPEG-4 Visual
Format profile              : Advanced Simpl[email protected]
Format settings, BVOP       : 2
Format settings, QPel       : No
Format settings, GMC        : No warppoints
Format settings, Matrix     : Default (MPEG)
Codec ID                    : XVID
Codec ID/Hint               : XviD
Duration                    : 1h 38mn
Bit rate                    : 3 800 Kbps
Width                       : 1 280 pixels
Height                      : 544 pixels
Display aspect ratio        : 2.40:1
Frame rate                  : 23.976 fps
Color space                 : YUV
Chroma subsampling          : 4:2:0
Bit depth                   : 8 bits
Scan type                   : Progressive
Compression mode            : Lossy
Bits/(Pixel*Frame)          : 0.234
Stream size                 : 2.62 GiB (75%)
Writing library             : XviD 67

Audio #1
ID                          : 1
Format                      : AC-3
Format/Info                 : Audio Coding 3
Mode extension              : CM (complete main)
Format settings, Endianness : Big
Codec ID                    : 2000
Duration                    : 1h 38mn
Bit rate mode               : Constant
Bit rate                    : 640 Kbps
Channel(s)                  : 6 channels
Channel positions           : Front: L C R, Side: L R, LFE
Sampling rate               : 48.0 KHz
Compression mode            : Lossy
Stream size                 : 452 MiB (13%)
Alignment                   : Split accross interleaves
Interleave, duration        : 42 ms (1.00 video frame)
Interleave, preload duratio : 500 ms

Audio #2
ID                          : 2
Format                      : AC-3
Format/Info                 : Audio Coding 3
Mode extension              : CM (complete main)
Format settings, Endianness : Big
Codec ID                    : 2000
Duration                    : 1h 38mn
Bit rate mode               : Constant
Bit rate                    : 640 Kbps
Channel(s)                  : 6 channels
Channel positions           : Front: L C R, Side: L R, LFE
Sampling rate               : 48.0 KHz
Compression mode            : Lossy
Stream size                 : 452 MiB (13%)
Alignment                   : Split accross interleaves
Interleave, duration        : 42 ms (1.00 video frame)
Interleave, preload duratio : 500 ms











shifo
descargar peliculas - descargar programas
12 Puntos Score: 6/10
Visitas: 1918 Favoritos: 3
Ver los usuarios que votaron...
0 Comentarios El Maestro del Dinero BrRip Latino 720p XviD [MG]
Este post no tiene comentarios. Sea el primero!
Para dejar un comentario Registrate! o.. eres ya usuario? Accede!
Facebook Identi