shifo
"Solo la mejor calidad Bdremux BDrip 1080p-720p"

Los Siete Magnificos BrRip Lat/Ing Mkv 1080p [MG]

Los Siete Magnificos BrRip Lat/Ing Mkv 1080p [MG]




FICHA TECNICA

TÍTULO ORIGINAL: The Magnificent Seven
OTROS TÍTULOS: Los Siete Magníficos
AÑO: 2016
DURACIÓN: 132 min.
PAÍS: Estados Unidos
DIRECTOR: Antoine Fuqua
GUIÓN: Richard Wenk, Nic Pizzolatto (Historia: Akira Kurosawa, Shinobu Hashimoto, Hideo Oguni)
MÚSICA: James Horner, Simon Franglen
FOTOGRAFÍA: Mauro Fiore
REPARTO: Denzel Washington, Chris Pratt, Ethan Hawke, Vincent D’Onofrio, Byung-hun Lee, Manuel García-Rulfo, Martin Sensmeier, Haley Bennett, Peter Sarsgaard, Matt Bomer, Luke Grimes, Cam Gigandet, Kevin Wayne, Thomas Blake Jr., Miles Doleac, Jonathan Joss
PRODUCTORA: Metro-Goldwyn-Mayer (MGM) / Sony Pictures / Village Roadshow Pictures
GÉNERO: Western. Acción | Remake

SINOPSIS:

Los habitantes de Rose Creek, atemorizados bajo el control del industrial Bartholomew Bogue, deciden contratar a siete forajidos para terminar con la amenaza: Sam Chisolm (Denzel Washington), Josh Faraday (Chris Pratt), Goodnight Robicheaux (Ethan Hawke), Jack Home (Vincent D´Onofrio), Billy Rocks (Byung-Hun Lee), Vasquez (Manuel García Rulfo) y Red Harvest (Martin Sensmeier). Sin embargo, pronto se darán cuenta estos siete que están luchando por algo más que el simple dinero. Remake del western homónimo de John Sturges, a su vez remake de ‘Los siete samuráis’ de Akira Kurosawa.

DATOS TECNICOS.

Format                                   : Matroska
Format version                           : Version 4 / Version 2
File size                                : 3.36 GiB
Duration                                 : 2 h 12 min
Overall bit rate                         : 3 620 kb/s
Movie name                               : Los Siete Magníficos (2016) 1080p
Encoded date                             : UTC 2016-12-09 22:34:46
Writing application                      : mkvmerge v8.3.0 ('Over the Horizon') 32bit
Writing library                          : libebml v1.3.1 + libmatroska v1.4.2

Video
ID                                       : 1
Format                                   : AVC
Format/Info                              : Advanced Video Codec
Format profile                           : [email protected]
Format settings, CABAC                   : Yes
Format settings, ReFrames                : 5 frames
Codec ID                                 : V_MPEG4/ISO/AVC
Duration                                 : 2 h 12 min
Bit rate                                 : 2 850 kb/s
Width                                    : 1 920 pixels
Height                                   : 800 pixels
Display aspect ratio                     : 2.40:1
Frame rate mode                          : Constant
Frame rate                               : 23.976 (24000/1001) FPS
Color space                              : YUV
Chroma subsampling                       : 4:2:0
Bit depth                                : 8 bits
Scan type                                : Progressive
Bits/(Pixel*Frame)                       : 0.077
Stream size                              : 2.64 GiB (79%)
Title                                    : Video
Writing library                          : x264 core 148 r2638 7599210
Language                                 : Spanish
Default                                  : Yes
Forced                                   : No

Audio #1
ID                                       : 2
Format                                   : AC-3
Format/Info                              : Audio Coding 3
Mode extension                           : CM (complete main)
Format settings, Endianness              : Big
Codec ID                                 : A_AC3
Duration                                 : 2 h 12 min
Bit rate mode                            : Constant
Bit rate                                 : 384 kb/s
Channel(s)                               : 6 channels
Channel positions                        : Front: L C R, Side: L R, LFE
Sampling rate                            : 48.0 kHz
Frame rate                               : 31.250 FPS (1536 spf)
Compression mode                         : Lossy
Stream size                              : 365 MiB (11%)
Title                                    : 5.1 Dolby Digital (Latino) @384Kbps BLU-RAY
Language                                 : Spanish
Default                                  : Yes
Forced                                   : No

Audio #2
ID                                       : 3
Format                                   : AC-3
Format/Info                              : Audio Coding 3
Mode extension                           : CM (complete main)
Format settings, Endianness              : Big
Codec ID                                 : A_AC3
Duration                                 : 2 h 12 min
Bit rate mode                            : Constant
Bit rate                                 : 384 kb/s
Channel(s)                               : 6 channels
Channel positions                        : Front: L C R, Side: L R, LFE
Sampling rate                            : 48.0 kHz
Frame rate                               : 31.250 FPS (1536 spf)
Compression mode                         : Lossy
Stream size                              : 365 MiB (11%)
Title                                    : 5.1 Dolby Digital (English) @384Kbps
Language                                 : English
Default                                  : No
Forced                                   : No

Text #1
ID                                       : 4
Format                                   : UTF-8
Codec ID                                 : S_TEXT/UTF8
Codec ID/Info                            : UTF-8 Plain Text
Duration                                 : 2 h 6 min
Bit rate                                 : 0 b/s
Count of elements                        : 25
Stream size                              : 637 Bytes (0%)
Title                                    : Subtítulos Español - FORZADOS (srt)
Language                                 : Spanish
Default                                  : Yes
Forced                                   : No

Text #2
ID                                       : 5
Format                                   : UTF-8
Codec ID                                 : S_TEXT/UTF8
Codec ID/Info                            : UTF-8 Plain Text
Duration                                 : 2 h 6 min
Bit rate                                 : 41 b/s
Count of elements                        : 1356
Stream size                              : 38.5 KiB (0%)
Title                                    : Subtítulos Español - COMPLETOS (srt)
Language                                 : Spanish
Default                                  : No
Forced                                   : No

Text #3
ID                                       : 6
Format                                   : UTF-8
Codec ID                                 : S_TEXT/UTF8
Codec ID/Info                            : UTF-8 Plain Text
Duration                                 : 1 h 4 min
Bit rate                                 : 0 b/s
Count of elements                        : 16
Stream size                              : 281 Bytes (0%)
Title                                    : Subtitles English - FORCED
Language                                 : English
Default                                  : No
Forced                                   : No







shifo
peliculas - programas
55 Puntos Score: 9.2/10
Visitas: 3077 Favoritos: 5
Ver los usuarios que votaron...
9 Comentarios Los Siete Magnificos BrRip Lat/Ing Mkv 1080p [MG]
@sebacorp de nada y gracias por pasar.
excelente!! , muchas gracias  
Buen aporte, gracias
@shifo Muchas Gracias!!! Se ve muy buena... Saludos y buenos aportes!!!  
@[email protected] @Betancourt  por nada companeros espero la disfruten
muchas gracias  
Muchas gracias. Porque mis chicos estaban como locos que la querian ver en español. Un abrazo
@motatun @mpiccioni por nada es un placer y espero que tus chicos la disfruten, la verdad es que esta muy buena la pelicula
Para dejar un comentario Registrate! o.. eres ya usuario? Accede!
Facebook Identi