the_dalas
"Stand By"

[FLAC] Billy Idol - Greatest Hits [Album]

Billy Idol
Greatest Hits




TRACKLIST


1      Shock To The System    
2      Super Overdrive    
3      Dancing With Myself    
4      Rebel Yell    
5      Flesh For Fantasy    
6      Eyes Without The Face    
7      Cradle Of Love    
8      World Comin` Down    
9      Speed    
10     L.A.Woman (Single Edit)    
11     Rat Race    
12     White Wedding, Pt 1    
13     Catch My Fall    
14     Scream    
15     Sweet Sixteen    
16     To Be A Lover    
17     Don`t Need A Gun (Single Edit)    
18     Plastic Jesus    



INFO

William Michael Albert Broad (30 de noviembre de 1955), mejor conocido como Billy Idol, es un músico de rock y actor británico. Inicialmente obtuvo reconocimiento como cantante de la banda de punk Generation X. Subsecuentemente, Idol se embarcó en una carrera como solista que le valió la fama internacional.

CUE

REM DISCID 1E12AB12
REM COMMENT "ExactAudioCopy v0.99pb5"
PERFORMER "Billy Idol"
TITLE "Greatest Hits - Star Mark -"
FILE "01. Billy Idol - Shock to the System.wav" WAVE
  TRACK 01 AUDIO
    TITLE "Shock to the System"
    PERFORMER "Billy Idol"
    INDEX 01 00:00:00
FILE "02. Billy Idol - Super Overdrive.wav" WAVE
  TRACK 02 AUDIO
    TITLE "Super Overdrive"
    PERFORMER "Billy Idol"
    INDEX 01 00:00:00
FILE "03. Billy Idol - Dancing With Myself.wav" WAVE
  TRACK 03 AUDIO
    TITLE "Dancing With Myself"
    PERFORMER "Billy Idol"
    INDEX 01 00:00:00
FILE "04. Billy Idol - Rebel Yell.wav" WAVE
  TRACK 04 AUDIO
    TITLE "Rebel Yell"
    PERFORMER "Billy Idol"
    INDEX 01 00:00:00
FILE "05. Billy Idol - Flesh for Fantasy.wav" WAVE
  TRACK 05 AUDIO
    TITLE "Flesh for Fantasy"
    PERFORMER "Billy Idol"
    INDEX 01 00:00:00
FILE "06. Billy Idol - Eyes Without a Face.wav" WAVE
  TRACK 06 AUDIO
    TITLE "Eyes Without a Face"
    PERFORMER "Billy Idol"
    INDEX 01 00:00:00
FILE "07. Billy Idol - Cradle of Love.wav" WAVE
  TRACK 07 AUDIO
    TITLE "Cradle of Love"
    PERFORMER "Billy Idol"
    INDEX 01 00:00:00
FILE "08. Billy Idol - World Comin' Down.wav" WAVE
  TRACK 08 AUDIO
    TITLE "World Comin' Down"
    PERFORMER "Billy Idol"
    INDEX 01 00:00:00
FILE "09. Billy Idol - Speed.wav" WAVE
  TRACK 09 AUDIO
    TITLE "Speed"
    PERFORMER "Billy Idol"
    INDEX 01 00:00:00
FILE "10. Billy Idol - L.A. Woman [Single Edit].wav" WAVE
  TRACK 10 AUDIO
    TITLE "L.A. Woman [Single Edit]"
    PERFORMER "Billy Idol"
    INDEX 01 00:00:00
FILE "11. Billy Idol - Rat Race.wav" WAVE
  TRACK 11 AUDIO
    TITLE "Rat Race"
    PERFORMER "Billy Idol"
    INDEX 01 00:00:00
FILE "12. Billy Idol - White Wedding, Pt 1.wav" WAVE
  TRACK 12 AUDIO
    TITLE "White Wedding, Pt 1"
    PERFORMER "Billy Idol"
    INDEX 01 00:00:00
FILE "13. Billy Idol - Catch My Fall.wav" WAVE
  TRACK 13 AUDIO
    TITLE "Catch My Fall"
    PERFORMER "Billy Idol"
    INDEX 01 00:00:00
FILE "14. Billy Idol - Scream.wav" WAVE
  TRACK 14 AUDIO
    TITLE "Scream"
    PERFORMER "Billy Idol"
    INDEX 01 00:00:00
FILE "15. Billy Idol - Sweet Sixteen.wav" WAVE
  TRACK 15 AUDIO
    TITLE "Sweet Sixteen"
    PERFORMER "Billy Idol"
    INDEX 01 00:00:00
FILE "16. Billy Idol - To Be a Lover.wav" WAVE
  TRACK 16 AUDIO
    TITLE "To Be a Lover"
    PERFORMER "Billy Idol"
    INDEX 01 00:00:00
FILE "17. Billy Idol - Don't Need a Gun [Single Edit].wav" WAVE
  TRACK 17 AUDIO
    TITLE "Don't Need a Gun [Single Edit]"
    PERFORMER "Billy Idol"
    INDEX 01 00:00:00
FILE "18. Billy Idol - Plastic Jesus.wav" WAVE
  TRACK 18 AUDIO
    TITLE "Plastic Jesus"
    PERFORMER "Billy Idol"
    INDEX 01 00:00:00


Audio
Format                      : FLAC
Format/Info                 : Free Lossless Audio Codec
Bit rate mode               : Variable
Bit rate                    : 904 Kbps
Channel(s)                  : 2 channels
Channel positions           : Front: L R
Sampling rate               : 44.1 KHz
Bit depth                   : 16 bits
Stream size                 : 561 MiB

DESCARGA POR MEGA

TheDalas

The_Dalas

descargar peliculas - descargar programas
0 Puntos Score: 0/10
Visitas: 834 Favoritos: 2
4 Comentarios [FLAC] Billy Idol - Greatest Hits [Album]
@the_dalas amigo que excelente calidad de sonido y aporte, gracias por compartir, esperando que recarguen puntos, a igual que otros usuarios pienso que los puntos es lo de menos y con el comentario basta, pero siento que te mereces puntos en significado de agradecimiento, asi que te combeare con +40, pura vida y gracias bro  
@JRASNK Tienes mucha razon mano el agradecer y comentar es lo que cuenta e insentiva a serguir compartiendo Gracias  
@Polo_777  
Para dejar un comentario Registrate! o.. eres ya usuario? Accede!
Facebook Identi