the_dalas
"Stand By"

[FLAC] Pandera - Piece of Paradise [Album]

PANDERA
Piece of Paradise

 

TRACKLIST


1     Joy And Fun (Sunshine Clubmix)                                        5:54
2     Summerfeeling (Radio Mix)                                               3:58
3     Terranova (Pandera Airplay Remix)                                   3:51
4     Come To Me (Radio Mix)                                                    3:48
5     I Love You Baby (Radio Mix)                                              3:39
6     In My Dreams (Radio Mix)                                                 3:58
7     We've Got The Power (Radio Mix)                                     4:03
8     Diamond Chord (Radio Mix)                                                4:04
9     Waiting Man (Radio Mix)                                                    3:48
10     Papa Don (Afro Clubmix)                                                   7:54
11     In My Dreams (Freestyle Project Radio Remix)                 4:00
12     We've Got The Power (Freestyle Project Radio Remix)     3:59
13     High & Low (Radio Mix)                                                      3:58
14     Fifth Colour Man (Radio Mix)                                             3:58
15     It's A Dream (Radio Mix)                                                  4:07
16     I Love You Baby (Camel Boom-Beat Remix)                        3:23
17     Summerfeeling (Ragga Mix)                                               4:11

INFO

Integrantes : Rap Markus Schuster, Vocalista Christina Bianco, Productor Franz Merwald. Pandera es un Proyecto Aleman de euroreggae.
En 1998 Fue Relanzado su Primer Album Piece of Paradise el cual incluye hits de verano y Summer feeling.


CUE



REM GENRE Dance
REM DATE 1998
REM DISCID EA111511
REM COMMENT "ExactAudioCopy v0.99pb5"
PERFORMER "Pandera"
TITLE "Piece of Paradise"
FILE "01. Pandera – Joy and Fun Sunshine Club.wav" WAVE
  TRACK 01 AUDIO
    TITLE "Joy and Fun Sunshine Club"
    PERFORMER "Pandera"
    INDEX 01 00:00:00
  TRACK 02 AUDIO
    TITLE "Summerfeeling"
    PERFORMER "Pandera"
    INDEX 00 05:53:48
FILE "02. Pandera – Summerfeeling.wav" WAVE
    INDEX 01 00:00:00
  TRACK 03 AUDIO
    TITLE "Terranova"
    PERFORMER "Pandera"
    INDEX 00 03:57:63
FILE "03. Pandera – Terranova.wav" WAVE
    INDEX 01 00:00:00
  TRACK 04 AUDIO
    TITLE "Come To Me"
    PERFORMER "Pandera"
    INDEX 00 03:51:00
FILE "04. Pandera – Come To Me.wav" WAVE
    INDEX 01 00:00:00
  TRACK 05 AUDIO
    TITLE "I Love You Baby"
    PERFORMER "Pandera"
    INDEX 00 03:48:45
FILE "05. Pandera – I Love You Baby.wav" WAVE
    INDEX 01 00:00:00
  TRACK 06 AUDIO
    TITLE "In My Dreams"
    PERFORMER "Pandera"
    INDEX 00 03:38:51
FILE "06. Pandera – In My Dreams.wav" WAVE
    INDEX 01 00:00:00
  TRACK 07 AUDIO
    TITLE "We've Got the Power"
    PERFORMER "Pandera"
    INDEX 00 03:58:41
FILE "07. Pandera – We've Got the Power.wav" WAVE
    INDEX 01 00:00:00
  TRACK 08 AUDIO
    TITLE "Diamond Chord"
    PERFORMER "Pandera"
    INDEX 00 04:02:48
FILE "08. Pandera – Diamond Chord.wav" WAVE
    INDEX 01 00:00:00
  TRACK 09 AUDIO
    TITLE "Waiting Man"
    PERFORMER "Pandera"
    INDEX 00 04:03:70
FILE "09. Pandera – Waiting Man.wav" WAVE
    INDEX 01 00:00:00
  TRACK 10 AUDIO
    TITLE "Papa Don Afro"
    PERFORMER "Pandera"
    INDEX 00 03:47:73
FILE "10. Pandera – Papa Don Afro.wav" WAVE
    INDEX 01 00:00:00
  TRACK 11 AUDIO
    TITLE "In My Dreams"
    PERFORMER "Pandera"
    INDEX 00 07:51:18
FILE "11. Pandera – In My Dreams.wav" WAVE
    INDEX 01 00:00:00
  TRACK 12 AUDIO
    TITLE "We've Got the Power"
    PERFORMER "Pandera"
    INDEX 00 04:00:52
FILE "12. Pandera – We've Got the Power.wav" WAVE
    INDEX 01 00:00:00
  TRACK 13 AUDIO
    TITLE "High and Low"
    PERFORMER "Pandera"
    INDEX 00 03:48:71
FILE "13. Pandera – High and Low.wav" WAVE
    INDEX 01 00:00:00
  TRACK 14 AUDIO
    TITLE "Fifth Colour Man"
    PERFORMER "Pandera"
    INDEX 00 03:58:49
FILE "14. Pandera – Fifth Colour Man.wav" WAVE
    INDEX 01 00:00:00
  TRACK 15 AUDIO
    TITLE "Its a Dream"
    PERFORMER "Pandera"
    INDEX 00 03:58:23
FILE "15. Pandera – Its a Dream.wav" WAVE
    INDEX 01 00:00:00
  TRACK 16 AUDIO
    TITLE "I Love You Baby Camel"
    PERFORMER "Pandera"
    INDEX 00 04:06:31
FILE "16. Pandera – I Love You Baby Camel.wav" WAVE
    INDEX 01 00:00:00
  TRACK 17 AUDIO
    TITLE "Summerfeeling Ragga Mix"
    PERFORMER "Pandera"
    INDEX 00 03:22:69
FILE "17. Pandera – Summerfeeling Ragga Mix.wav" WAVE
    INDEX 01 00:00:00
Audio
Format                      : FLAC
Format/Info                 : Free Lossless Audio Codec
Bit rate mode               : Variable
Bit rate                    : 1037 Kbps
Channel(s)                  : 2 channels
Channel positions           : Front: L R
Sampling rate               : 44.1 KHz
Bit depth                   : 16 bits
Stream size                 : 518 MiB


DESCARGA POR MEGA

TheDalas


Uno de mis Grupos favoritos de Dance noventeros.
No olbides dejar tu comentario.

The_Dalas
descargar peliculas - descargar programas
10 Puntos Score: 10/10
Visitas: 265 Favoritos: 0
Ver los usuarios que votaron...
1 Comentarios [FLAC] Pandera - Piece of Paradise [Album]
no recuerdo a esta gente ...lo bajare a ver que onda...igual entre aca porque lei PANTERA
Para dejar un comentario Registrate! o.. eres ya usuario? Accede!
Facebook Identi