the_dalas
"Stand By"

[FLAC] Stacey Q - Better Than Heaven [Album]

-Stacey Q-
 Better Than Heaven





TRACKLIST
1.     "Two of Hearts"               3:59
2.     "We Connect"                  4:14
3.     "Insecurity"                     3:31
4.     "Better Than Heaven"       3:33
5.     "Don't Let Me Down"        3:53
6.     "Music Out of Bounds"      4:24
7.     "Love or Desire"               3:46
8.     "Don't Break My Heart"     3:33
9.     "He Doesn't Understand"   5:07
10.     "Dancing Nowhere"         3:46
                      Total length:    39:46


INFO
Better Than Heaven es el primer album de la cantante americana Stacey Q, lanzado en Octubre 17, 1986 por Atlantic Records. Producida Jon St. James, Better Than Heaven es un album de dance-pop con elementos de Hi-NRG, freestyle y musica new wave. Ella colaboro en la misma linea de musicos cuyo grupo SSQ ya habia integrado antes.

CUE

REM GENRE Hi-Nrg
REM DATE 1986
REM DISCID 700A150A
REM COMMENT "ExactAudioCopy v0.99pb5"
CATALOG 0075678167621
PERFORMER "Stacey Q"
TITLE "Better Than Heaven"
FILE "Stacey Q - Better Than Heaven.flac" WAVE
  TRACK 01 AUDIO
    TITLE "Two Of Hearts"
    PERFORMER "Stacey Q"
    INDEX 00 00:00:00
    INDEX 01 00:00:37
  TRACK 02 AUDIO
    TITLE "We Connect"
    PERFORMER "Stacey Q"
    INDEX 01 07:14:10
  TRACK 03 AUDIO
    TITLE "Insecurity"
    PERFORMER "Stacey Q"
    INDEX 01 11:29:32
  TRACK 04 AUDIO
    TITLE "Better Than Heaven"
    PERFORMER "Stacey Q"
    INDEX 01 14:59:65
  TRACK 05 AUDIO
    TITLE "Don't Let Me Down"
    PERFORMER "Stacey Q"
    INDEX 01 18:30:62
  TRACK 06 AUDIO
    TITLE "Music Out Of Bounds"
    PERFORMER "Stacey Q"
    INDEX 00 22:23:48
    INDEX 01 22:24:62
  TRACK 07 AUDIO
    TITLE "Love Or Desire"
    PERFORMER "Stacey Q"
    INDEX 01 26:49:07
  TRACK 08 AUDIO
    TITLE "Don't Break My Heart"
    PERFORMER "Stacey Q"
    INDEX 01 30:35:42
  TRACK 09 AUDIO
    TITLE "He Doesn't Understand"
    PERFORMER "Stacey Q"
    INDEX 00 34:08:70
    INDEX 01 34:09:30
  TRACK 10 AUDIO
    TITLE "Dancing Nowhere"
    PERFORMER "Stacey Q"
    INDEX 01 39:14:35
Audio
Format                      : FLAC
Format/Info                 : Free Lossless Audio Codec
Duration                    : 43mn 1s
Bit rate mode               : Variable
Bit rate                    : 836 Kbps
Channel(s)                  : 2 channels
Channel positions           : Front: L R
Sampling rate               : 44.1 KHz
Bit depth                   : 16 bits
Stream size                 : 257 MiB (100%)


DESCARGA POR MEGA
TheDalas
No te bayas sin comentar.


The_Dalas
descargar peliculas - descargar programas
15 Puntos Score: 7.5/10
Visitas: 396 Favoritos: 0
Ver los usuarios que votaron...
3 Comentarios [FLAC] Stacey Q - Better Than Heaven [Album]
Gracias ,saludos  
@dariokk De nada hermano, disfrutalo  
Gran Clasico, Thank You!.
Para dejar un comentario Registrate! o.. eres ya usuario? Accede!
Facebook Identi