the_dalas
"Stand By"

[FLAC] Catherine Sound Disc [OST]

SHOJI MEGURO
CATHERINE SOUND DISC




TRACKLIST


I. Planets Suite 'Mars', 'Jupiter'
Composer: Gustav Holst
II. Symphony No. 5 in C minor 'Fate' 3rd Movement
Composer: Ludwig van Beethoven
III. 'Little' Fugue in G minor
Composer: Johann Sebastian Bach
IV. Symphony No. 9 in E minor 'From the New World' 1st Movement, 3rd Movement Scherzo
Composer: Antonín Dvo?ák
V. William Tell Overture Part 2 'The Storm' and Part 3 'The Ranz des Vaches'
Composer: Gioachino Rossini
VI. Polovtsian Dances
Composer: Alexander Borodin
VII. Pictures at an Exhibition 'The Hut on Fowl's Legs (Baba-Yagá)'
Composer: Modest Mussorgsky
VIII. L'Arlésienne Second Suite 'Faradole'
Composer: Georges Bizet
IX. 'Revolutionary Etude'
Composer: Frédéric Chopin
X. Messiah 'Hallelujah Chorus'
Composer: George Frideric Handel
XI. Piano Sonata No. 2 'Funeral March' 3rd Movement
Composer: Frédéric Chopin





INFO

CD de musica de Catherine que se escucha a lo largo del juego, son sinfonias de Grandes compositores de musica clasica (Bach, Chopin, Beethoven entre otros) que fueron adaptadas con intrumentos modernos para este video juego.
La edicion original de coleccionista viene con el juego PS3 Catherine mas el CD del Soundtrack, un Libro de artes, un cojin, una camiseta y dos boxers alusivos al juego.





CUE

REM GENRE Score
REM DATE 2011
REM DISCID 8D06ED0B
REM COMMENT "ExactAudioCopy v1.0b3"
PERFORMER "Shoji Meguro"
TITLE "CATHERINE Sound Disc"
FILE "01. Planets Suite ''Mars'', ''Jupiter''.flac" WAVE
  TRACK 01 AUDIO
    TITLE "Gustav Holst - Planets Suite 'Mars', 'Jupiter'"
    PERFORMER "Shoji Meguro"
    INDEX 01 00:00:00
FILE "02. Symphony No. 5 in C minor ''Fate'' 3rd Movement.flac" WAVE
  TRACK 02 AUDIO
    TITLE "Ludwig van Beethoven - Symphony No. 5 in C minor 'Fate' 3rd Movement"
    PERFORMER "Shoji Meguro"
    INDEX 01 00:00:00
FILE "03. ''Little'' Fugue in G minor.flac" WAVE
  TRACK 03 AUDIO
    TITLE "Johann Sebastian Bach - 'Little' Fugue in G minor"
    PERFORMER "Shoji Meguro"
    INDEX 01 00:00:00
FILE "04. Symphony No. 9 in E minor ''From the New World'' 1st Movement, 3rd Movement Scherzo.flac" WAVE
  TRACK 04 AUDIO
    TITLE "Antonín Dvo?ák - Symphony No. 9 in E minor 'From the New World' 1st Movement, 3rd Movement Scherzo"
    PERFORMER "Shoji Meguro"
    INDEX 01 00:00:00
FILE "05. William Tell Overture Part 2 ''The Storm'' and Part 3 ''The Ranz des Vaches''.flac" WAVE
  TRACK 05 AUDIO
    TITLE "Gioachino Rossini - William Tell Overture Part 2 'The Storm' and Part 3 'The Ranz des Vaches'"
    PERFORMER "Shoji Meguro"
    INDEX 01 00:00:00
FILE "06. Polovtsian Dances.flac" WAVE
  TRACK 06 AUDIO
    TITLE "Alexander Borodin - Polovtsian Dances"
    PERFORMER "Shoji Meguro"
    INDEX 01 00:00:00
FILE "07. Pictures at an Exhibition ''The Hut on Fowl's Legs (Baba-Yaga)''.flac" WAVE
  TRACK 07 AUDIO
    TITLE "Modest Mussorgsky - Pictures at an Exhibition 'The Hut on Fowl's Legs (Baba-Yagá)'"
    PERFORMER "Shoji Meguro"
    INDEX 01 00:00:00
FILE "08. L'Arlesienne Second Suite ''Faradole''.flac" WAVE
  TRACK 08 AUDIO
    TITLE "Georges Bizet - L'Arlésienne Second Suite 'Farandole'"
    PERFORMER "Shoji Meguro"
    INDEX 01 00:00:00
FILE "09. ''Revolutionary Etude''.flac" WAVE
  TRACK 09 AUDIO
    TITLE "Frederic Chopin - 'Revolutionary Etude'"
    PERFORMER "Shoji Meguro"
    INDEX 01 00:00:00
FILE "10. Messiah ''Hallelujah Chorus''.flac" WAVE
  TRACK 10 AUDIO
    TITLE "Georg Friedrich Händel - Messiah 'Hallelujah Chorus'"
    PERFORMER "Shoji Meguro"
    INDEX 01 00:00:00
FILE "11. Piano Sonata No. 2 ''Funeral March'' 3rd Movement.flac" WAVE
  TRACK 11 AUDIO
    TITLE "Frederic Chopin - Piano Sonata No. 2 'Funeral March' 3rd Movement"
    PERFORMER "Shoji Meguro"
    INDEX 01 00:00:00
AUDIO
Format                      : FLAC
Format/Info                 : Free Lossless Audio Codec
Bit rate mode               : Variable
Bit rate                    : 614 Kbps
Channel positions           : Front: L R
Sampling rate               : 44.1 KHz
Bit depth                   : 16 bits
size                        : 170 MiB

DESCARGA POR MEGA
TheDalas

Deja tu comentario.


The_Dalas
descargar peliculas - descargar programas
18 Puntos Score: 6/10
Visitas: 308 Favoritos: 1
Ver los usuarios que votaron...
3 Comentarios [FLAC] Catherine Sound Disc [OST]
bajando.. se agradece .. veo q tal suena.. van 5 puntines
@Anti666 Gracias por pasar y comentar  
@steampunk  
Para dejar un comentario Registrate! o.. eres ya usuario? Accede!
Facebook Identi