the_dalas
"Stand By"

[APE] Einhander - Original Soundtrack [OST]

KENICHIRO FUKUI
EINHÄNDER ORIGINAL SOUNDTRACK




TRACKLIST

01     [ASSAULT] -Movie [Opening]-                         1:04
02     [TAKE OFF] -Fighter / Arm Selection-                0:59
03     [CAPITAL] -Stage1 #1: Flak Towers-                  0:34
04     [STREET] -Stage1 #2: Business District-             2:44
05     [RUINS] -Stage1 #3: Old Town-                       1:05
06     [CHASE] -Stage1 #4: Autobahn-                       1:36
07     [MACHINE BEAT] -Stage2 #1: Armored Trains-          3:35
08     [BADLANDS] -Stage2 #2: Desert-                      4:00
09     [SILENCE] -Stage3 #1: Nuclear Silo Remains-         1:34
10     [WARNING] -Stage3 #2: Unmanned Ship-                3:55
11     [BREAKTHROUGH] -Stage4 #1: Subterranean Lake-       2:54
12     [FACTORY] -Stage4 #2: Underground Factory-          3:17
13     [DAWN] -Stage5 #1: Air Base-                        2:55
14     [MADNESS] -Stage5 #2: Versus Gestell-               3:04
15     [CONFLICT] -Stage5 #3: Catapult Facility-           3:11
16     [IMPATIENCE] -Stage6 #1: Stratosphere-              3:02
17     [THERMOSPHERE] -Stage6 #2: Versus Schwarzgeist-     3:20
18     [AFTERIMAGE] -Stage6 #3: Versus Monitor-            3:17
19     [ADVENT] -Movie [EOS Attack]-                       0:38
20     [REBELLION] -Stage7 #1: Space-                      1:29
21     [ZERO GRAVITY] -Stage7 #2: Versus Hyperion-         3:14
22     [SHUDDER] -Versus Large Enemy: Type 1-              2:27
23     [BLOODY BATTLE] -Versus Large Enemy: Type 2-        3:23
24     [MUDDLE] -Continue Countdown-                       0:19
25     [MOONLIGHT] -Ending: Type 1-                        0:13
26     [JUDGMENT] -Total Evaluation-                       1:11
27     [EARTHLIGHT] -Staff Roll-                           3:05
28     [METEMPSYCHOSIS] -Unused Bonus Track-               1:37
29     [BEGINNING] -Tokyo Game Show '97 Special Remix-     1:59
                                              Disc length 65:41



INFO
La música de Einhänder proviene de Kenichiro Fukui, quien ya había trabajado anteriormente alguna vez con Square. La música del juego cae sobre un plano completamente electrónico, donde las canciones están compuestas por "loops" y beats con percusiones y sintetizadores bastante distorsionados, todo esto con alguna que otra mezcla de cantos de ópera y toques bastante esporádicos. Es aquí donde esa mezcla extraña de meter-ópera con la música electrónica, da un estilo de juego bastante profundo, épico y futurista. El soundtrack del juego fue publicado en Japón el 21 de diciembre por DigiCube, un subsidiario de Squaresoft. La pista final del soundtrack titulada "Beginning", estuvo en Square Enix Music Compilation 2, un álbum de recopilaciones publicado el 1 de mayo del 2008 para miembros del sitio web japonés de Square Enix.

CUE

    INDEX 00 42:53:71
    INDEX 01 42:55:41
  TRACK 19 AUDIO
     TITLE "Advent - Eos Invasion"
    PERFORMER "KENICHIRO FUKUI"
    INDEX 00 46:11:07
    INDEX 01 46:12:52
  TRACK 20 AUDIO
    TITLE "Rebellion - Space"
    PERFORMER "KENICHIRO FUKUI"
    INDEX 00 46:49:33
    INDEX 01 46:51:03
  TRACK 21 AUDIO
     TITLE "Zero Gravity - Vs. Hyperion"
    PERFORMER "KENICHIRO FUKUI"
    INDEX 00 48:18:46
    INDEX 01 48:20:16
  TRACK 22 AUDIO
    TITLE "Shudder - Vs. Large Enemy Type 1"
    PERFORMER "KENICHIRO FUKUI"
    INDEX 00 51:32:74
    INDEX 01 51:34:44
  TRACK 23 AUDIO
   TITLE "Bloody Battle - Vs. Large Enemy Type 2"
    PERFORMER "KENICHIRO FUKUI"
    INDEX 00 54:00:13
    INDEX 01 54:01:58
  TRACK 24 AUDIO
    TITLE "Muddle - Continue Count"
    PERFORMER "KENICHIRO FUKUI"
    INDEX 00 57:23:45
    INDEX 01 57:25:15
  TRACK 25 AUDIO
   TITLE "Moonlight - Ending Type 1"
    PERFORMER "KENICHIRO FUKUI"
    INDEX 00 57:42:66
    INDEX 01 57:44:36
  TRACK 26 AUDIO
   TITLE "Judgment - Assessment"
    PERFORMER "KENICHIRO FUKUI"
    INDEX 00 57:55:68
    INDEX 01 57:57:38
  TRACK 27 AUDIO
    TITLE "Earthlight - Staff Roll"
    PERFORMER "KENICHIRO FUKUI"
    INDEX 00 59:07:15
    INDEX 01 59:08:60
  TRACK 28 AUDIO
     TITLE "Metempsychosis - Unused Bonus Track"
    PERFORMER "KENICHIRO FUKUI"
    INDEX 00 62:11:20
    INDEX 01 62:13:65
  TRACK 29 AUDIO
     TITLE "Beginning - Tokyo Game Show '97 Special Remix"
    PERFORMER "KENICHIRO FUKUI"
    INDEX 00 63:49:19
    INDEX 01 63:51:64

Audio
Format                      : Monkey's Audio [APE]
Duration                    : 1h 5mn
Bit rate                    : 905 Kbps
Channel(s)                  : 2 channels
Sampling rate               : 44.1 KHz
Bit depth                   : 16 bits
Compression mode            : Lossless
Compression ratio           : 1.559
Stream size                 : 426 MiB (100%)
Encoding settings           : Extra-high


DESCARGA POR MEGA

TheDalas

Recuerda dejar tu comentario


The_Dalas
peliculas - programas
0 Puntos Score: 0/10
Visitas: 197 Favoritos: 0
0 Comentarios [APE] Einhander - Original Soundtrack [OST]
Este post no tiene comentarios. Sea el primero!
Para dejar un comentario Registrate! o.. eres ya usuario? Accede!
Facebook Identi