jacku
"Aportando ese Faltante en la Red."

Doctor Strange: The Sorcerer Supreme 720p MG



TÍTULO ORIGINAL: Doctor Strange: The Sorcerer Supreme
OTROS TÍTULOS: Doctor Extraño: El hechicero supremo
AÑO: 2007
DURACIÓN: 75 min.
PAÍS: USA
DIRECTOR: Jay Oliva, Frank Paur
GUIÓN: Greg Johnson (Personajes: Stan Lee, Steve Ditko)
MÚSICA : Guy Michelmore
FOTOGRAFÍA: Animation
REPARTO: Animation
PRODUCTORA: Marvel Enterprises
GÉNERO: Animación. Fantástico | Superhéroes. Cómic. Marvel Com




SINOPSIS


Doctor Extraño El hechicero supremo Pelicula de animacion La historia plantea un nuevo comienzo para Stephen Strange, el maestro de las artes místicas del Universo Marvel, pero contando con los personajes principales que han acompañado al antiguo cirujano a lo largo de toda su existencia. Su mentar es el Anciano, su sirviente fiel sigue siendo Wong, y su enemigo principal es Dormammu..

Ficha Tecnica

MEDIA INFO
General
Format                                   : Matroska
Format version                           : Version 4 / Version 2
File size                                : 2.03 GiB
Duration                                 : 1h 16mn
Overall bit rate                         : 3 804 Kbps
Movie name                               : Doctor Strange (2007) - 720p - Molpol

Video
ID                                       : 1
Format                                   : AVC
Format/Info                              : Advanced Video Codec
Format profile                           : [email protected]
Format settings, CABAC                   : Yes
Format settings, ReFrames                : 4 frames
Codec ID                                 : V_MPEG4/ISO/AVC
Duration                                 : 1h 16mn
Bit rate                                 : 2 500 Kbps
Width                                    : 1 280 pixels
Height                                   : 720 pixels
Display aspect ratio                     : 16:9
Frame rate mode                          : Constant
Frame rate                               : 23.976 fps
Color space                              : YUV
Chroma subsampling                       : 4:2:0
Bit depth                                : 8 bits
Scan type                                : Progressive
Bits/(Pixel*Frame)                       : 0.113
Stream size                              : 1.31 GiB (64%)
 

Audio #1
ID                                       : 2
Format                                   : AC-3
Format/Info                              : Audio Coding 3
Mode extension                           : CM (complete main)
Format settings, Endianness              : Big
Codec ID                                 : A_AC3
Duration                                 : 1h 16mn
Bit rate mode                            : Constant
Bit rate                                 : 640 Kbps
Channel(s)                               : 6 channels
Channel positions                        : Front: L C R, Side: L R, LFE
Sampling rate                            : 48.0 KHz
Bit depth                                : 16 bits
Compression mode                         : Lossy
Stream size                              : 350 MiB (17%)
Language                                 : Latin
Default                                  : Yes
Forced                                   : No

Audio #2
ID                                       : 3
Format                                   : AC-3
Format/Info                              : Audio Coding 3
Mode extension                           : CM (complete main)
Format settings, Endianness              : Big
Codec ID                                 : A_AC3
Duration                                 : 1h 16mn
Bit rate mode                            : Constant
Bit rate                                 : 640 Kbps
Channel(s)                               : 6 channels
Channel positions                        : Front: L C R, Side: L R, LFE
Sampling rate                            : 48.0 KHz
Bit depth                                : 16 bits
Compression mode                         : Lossy
Stream size                              : 350 MiB (17%)
Language                                 : English
Default                                  : No
Forced                                   : No

Text #1
ID                                       : 4
Format                                   : UTF-8
Codec ID                                 : S_TEXT/UTF8
Codec ID/Info                            : UTF-8 Plain Text
Language                                 : Latin
Default                                  : No
Forced                                   : No

Text #2
ID                                       : 5
Format                                   : UTF-8
Codec ID                                 : S_TEXT/UTF8
Codec ID/Info                            : UTF-8 Plain Text
Language                                 : English
Default                                  : No
Forced                                   : No

Menu
00:00:00.000                             : en:Chapter 01
00:05:47.013                             : en:Chapter 02
00:09:31.070                             : en:Chapter 03
00:15:47.154                             : en:Chapter 04
00:19:40.095                             : en:Chapter 05
00:25:08.173                             : en:Chapter 06
00:30:13.770                             : en:Chapter 07
00:35:47.728                             : en:Chapter 08
00:40:11.826                             : en:Chapter 09
00:42:43.352                             : en:Chapter 10
00:47:24.550                             : en:Chapter 11
00:49:59.663                             : en:Chapter 12
00:54:05.408                             : en:Chapter 13
00:58:44.437                             : en:Chapter 14
01:04:08.678                             : en:Chapter 15
01:11:31.287                             : en:Chapter 16

Capturas

MEGA

descargar peliculas - descargar programas
87 Puntos Score: 8.7/10
Visitas: 11449 Favoritos: 6
Ver los usuarios que votaron...
21 Comentarios Doctor Strange: The Sorcerer Supreme 720p MG
Gracias @jacku por compartir   descargando y ala espera de la pelicula.
Muchas Gracias !!!!
 
buenisima es esta pelicula veanla asi entienden mejor la actuada
Ok. no recuerdo si ya la vi pero para quitar dudas me la voy a echar..  Chaz Gracias
RECOMIENDO ESTA PELÍCULA AMPLIAMENTE!!!
Yo ya la vi, pero me gusto mucho esta animación, asi que me la descargo para verla de nuevo. jejeje.
Gracias por el aporte.  Puntines para tiiiiii!!!
gracias excelente aporte
Me encantó esta peli, espero que pronto salga la nueva  
exelente aporte no se si puedes pasarme el link directo de mega para bajarlo con megadowloader ? con jdowloader me sale limite exedido y con myponi  baja a solo 90 kbs  super lento Gracias
Estoy en la misma que @Gravionz y de Jdownloader tampoco permite abrir el link en el navegador
estoy igual que los compañeros no puedo descargar desde jdownloader
@ARESMIL  mas tarde enviare el link
Ojala pusieran el enlace directo ... en jdowloader sale que MEGA a bloqueado mi IP. Ni puta idea pq
Cita jacku: Mostrar
Brother, ojala puedas poner pronto el enlace, muchos andamos con problemas en JDOWLOADER con MEGA y sus restricciones pedorras.
@Raxzo gracias amigo descargando
@jacku Pasa el Link porfa
Gracias por el link +10
Funcionado de 10 ,a  los que no les habre  el Pop up , habilítenlo desde su navegador.

Gracias por compartir.

Saludos
Para dejar un comentario Registrate! o.. eres ya usuario? Accede!
Facebook Identi