pancram
"Linux give me a home.... microsoft only windows."

Ben-Hur -- Estreno 2016 720p BluRay Rip

Ben Hur  -- Estreno 2016  720p BluRay Rip




Ben-Hur es una película épica e histórica estadounidense dirigida por Timur Bekmambetov y escrita por
Keith R. Clarke y John Ridley, basada en la novela Ben-Hur, escrita por Lew Wallace y publicada en 1880.
Se habían realizado anteriores versiones cinematográficas del relato en 1907, 1925 y 1959, las dos últimas con
gran éxito de público. El filme está protagonizado por Jack Huston, Morgan Freeman, Toby Kebbell, Nazanin Boniadi
 y Rodrigo Santoro. La fotografía principal comenzó el 2 de febrero de 2015, en Roma (Italia)

Judá Ben-Hur (Jack Huston), un antiguo príncipe de Jerusalén, sobrevive años de galeras para vengarse de
 su hermano adoptivo, Messala (Toby Kebbell), quien le acusó falsamente de atacar al precepto de Judea
 Poncio Pilatos (Pilou Asbæk). Con la ayuda de un mercader (Morgan Freeman), Judá regresa a Jerusalén para
derrotar en una carrera de cuadrigas a su hermano y a Roma.

Reparto
    Jack Huston como Judah Ben-Hur
    Morgan Freeman como Sheik Ilderim
    Toby Kebbell como Messala
    Nazanin Boniadi como Esther
    Rodrigo Santoro como Jesús
    Sofia Black D'Elia como Tirsa
    Ayelet Zurer como Naomi
    Moisés Arias como Dimas
    Pilou Asbæk como Poncio Pilatos
    Marwan Kenzari como Drusos
    Edoardo Purgatori como el esclavo enojado
    Haluk Bilginer como Simónides
Video

Format                                   : AVC

Format/Info                             : Advanced Video Codec
Format profile                         : [email protected]
Format settings, CABAC          : Yes
Format settings, ReFrames      : 4 frames
Codec ID                                 : avc1
Codec ID/Info                          : Advanced Video Coding
Duration                                  : 2h 4mn
Bit rate                                    : 1 500 Kbps
Width                                      : 1 280 pixels
Height                                     : 536 pixels
Display aspect ratio                  : 2.40:1
Frame rate mode                     : Constant
Frame rate                              : 23.976 (23976/1000) fps
Color space                             : YUV
Chroma subsampling                : 4:2:0
Bit depth                                  : 8 bits
Scan type                                 : Progressive
Bits/(Pixel*Frame)                     : 0.091
Stream size                              : 1.31 GiB (87%)
Writing library                           : x264 core 148 r2597M e86f3a1


Audio
Format                                     : AAC
Format/Info                              : Advanced Audio Codec
Format profile                          : LC
Codec ID                                 : 40
Duration                                  : 2h 4mn
Bit rate mode                           : Constant
Bit rate                                    : 224 Kbps
Channel(s)                               : 2 channels
Channel(s)_Original                  : 6 channels
Channel positions                     : Front: L C R, Side: L R, LFE
Sampling rate                           : 48.0 KHz
Frame rate                               : 46.875 fps (1024 spf)
Compression mode                   : Lossy
Stream size                              : 200 MiB (13%)
Language                                 : English

Subtítulos separados del vídeo, formato srt
Excelente calidad, sin subs coreanos ni marcas de agua











Son 2 Ficheros :
Ben.Hur.2016.720p.BluRay.H264.AAC.mp4  de 1.51 GB
y los subtítulos
Ben.Hur.2016.720p.BluRay.H264.AAC.srt



Enlaces De Descarga







Ben-Hur -- Estreno 2016 720p BluRay Rip
47 Puntos Score: 7.8/10
Visitas: 1009 Favoritos: 0
Ver los usuarios que votaron...
12 Comentarios Ben-Hur -- Estreno 2016 720p BluRay Rip
excelente aporte hermano!!! descargando mañana te paso puntos porque ya repartí los de j¿hoy!!!
@lelolelo    ok, de paso me comentas que te parece la calidad
Gracias por compartir  
alguien la ha visto? la recomiendan?
@demaniaco @pelu13  gracias  
@tuxor pienso verla esta noche, la descargué hoy, así que no la vi aún. En IMDB le dan 5.7 de puntaje en 11.200 votos
@tuxor por el trailer tiene buena pinta  
esque leí que no está tan buena. que tuvieron pérdidas millonarias y ni siquiera morgan freeman pudo salvarla
@tuxor habrá que verla entonces. Mañana te cuento que me pareció  
Pues yo la vi en el cine, y lejos de ser mejor que la original! Pero si entretiene y está para pasar el rato esta versión.  Ya la ando bajando para verla de nuevo.  saludos y gracias por el aporte.
@adhewars gracias por el dato  
gracias por la pelicula  
Para dejar un comentario Registrate! o.. eres ya usuario? Accede!