[FLAC] Bullet For My Valentine - Hand Of Blood[EP]

Bullet For My Valentine - Hand Of Blood


TRACKLIST

1. 4 Words (To Choke Upon)
 2. Hand Of Blood
 3. Cries In Vain
 4. Curses
 5. No Control
 6. Just Another Star


INFO

Hand of Blood es el segundo EP de la banda galesa de heavy metal Bullet for My Valentine. Este EP es exactamente idéntico a su antecesor. Fue lanzado el 22 de agosto de 2005 a través de Trustkill Records, con una caratula completamente diferente y algunas canciones re-grabadas, 4 Words (To Choke Upon), el cual fue la pista 6 en la versión japonesa de su EP homónimo. Por circunstancias desconocidas, este EP no está disponible en la versión de iTunes en los Estados Unidos. Hand of Blood incluye en sencillo 4 Words (To Choke Upon), acompañado de un vídeo musical, al igual que la canción Hand of Blood con su respectivo vídeo. Las canciones 4 Words (To Choke Upon) y Cries in Vain fueron incluidas más adelante en el álbum debut de la banda, The Poison.

CUE

REM GENRE Rock
REM DATE 2005
REM DISCID 55095707
REM COMMENT "ExactAudioCopy v0.99pb4"
PERFORMER "Bullet For My Valentine"
TITLE "Hand Of Blood"
FILE "Bullet For My Valentine - Hand Of Blood.flac" WAVE
  TRACK 01 AUDIO
    TITLE "4 Words (To Choke Upon)"
    PERFORMER "Bullet For My Valentine"
    INDEX 01 00:00:00
  TRACK 02 AUDIO
    TITLE "Hand Of Blood"
    PERFORMER "Bullet For My Valentine"
    INDEX 00 03:44:14
    INDEX 01 03:46:10
  TRACK 03 AUDIO
    TITLE "Cries In Vain"
    PERFORMER "Bullet For My Valentine"
    INDEX 00 07:22:47
    INDEX 01 07:23:62
  TRACK 04 AUDIO
    TITLE "Curses"
    PERFORMER "Bullet For My Valentine"
    INDEX 00 11:22:69
    INDEX 01 11:23:67
  TRACK 05 AUDIO
    TITLE "No Control"
    PERFORMER "Bullet For My Valentine"
    INDEX 00 15:22:58
    INDEX 01 15:23:65
  TRACK 06 AUDIO
    TITLE "Just Another Star"
    PERFORMER "Bullet For My Valentine"
    INDEX 00 18:57:18
    INDEX 01 18:58:26

AUDIOFormat                      : FLAC
Format/Info                 : Free Lossless Audio Codec
Bit rate mode               : Variable
Bit rate                    : 1017 Kbps
Channel positions           : Front: L R
Sampling rate               : 44.1 KHz
Bit depth                   : 16 bits


DESCARGA POR MEGA

TheDalas


The_dalas
[FLAC] Bullet For My Valentine - Hand Of Blood[EP]
10 Puntos Score: 10/10
Visitas: 143 Favoritos: 0
Ver los usuarios que votaron...
0 Comentarios [FLAC] Bullet For My Valentine - Hand Of Blood[EP]
Este post no tiene comentarios. Sea el primero!
Para dejar un comentario Registrate! o.. eres ya usuario? Accede!