[FLAC] Vault - Def Leppard Greatest Hits [Album]

Vault - Def Leppard Greatest Hits


TRACKLIST


INFO

Vault - Def Leppard Greatest Hits (1980-1995) (también llamado Def Leppard Greatest Hits) es el primer álbum recopilatorio de Def Leppard lanzado el 31 de Octubre 1995. Incluye 15 de sus singles más exitosos en todo el mundo, que se celebra en el aniversario 15 del lanzamiento de su álbum debut. El álbum llegó a ser el #7 en el RPM de Canadá, fue #2 en Nueva Zelanda, también llegó al #3 en la lista de álbumes del Reino Unido, y #15 en Billboard Top 200 listas de álbumes. El álbum contiene en exitoso tema «When Love and Hate Collide» que fue #1 en Irlanda, #2 en el Reino Unido y #58 en el Billboard Hot 100.


CUE


REM GENRE "Hard Rock"
REM DATE 1995
REM DISCID ED113010
REM COMMENT "ExactAudioCopy v1.0b3"
PERFORMER "Def Leppard"
TITLE "Vault- Limited Edtion CD1"
FILE "(1) Pour Some Sugar On Me - Def Leppard.wav" WAVE
  TRACK 01 AUDIO
    TITLE "Pour Some Sugar On Me"
    PERFORMER "Def Leppard"
    PREGAP 00:00:32
    INDEX 01 00:00:00
FILE "(2) Photograph - Def Leppard.wav" WAVE
  TRACK 02 AUDIO
    TITLE "Photograph"
    PERFORMER "Def Leppard"
    INDEX 01 00:00:00
FILE "(3) Love Bites - Def Leppard.wav" WAVE
  TRACK 03 AUDIO
    TITLE "Love Bites"
    PERFORMER "Def Leppard"
    INDEX 01 00:00:00
FILE "(4) Let's Get Rocked - Def Leppard.wav" WAVE
  TRACK 04 AUDIO
    TITLE "Let's Get Rocked"
    PERFORMER "Def Leppard"
    INDEX 01 00:00:00
FILE "(5) Two Steps Behind - Def Leppard.wav" WAVE
  TRACK 05 AUDIO
    TITLE "Two Steps Behind"
    PERFORMER "Def Leppard"
    INDEX 01 00:00:00
FILE "(6) Animal - Def Leppard.wav" WAVE
  TRACK 06 AUDIO
    TITLE "Animal"
    PERFORMER "Def Leppard"
    INDEX 01 00:00:00
FILE "(7) Heaven Is - Def Leppard.wav" WAVE
  TRACK 07 AUDIO
    TITLE "Heaven Is"
    PERFORMER "Def Leppard"
    INDEX 01 00:00:00
FILE "(8) Rocket - Def Leppard.wav" WAVE
  TRACK 08 AUDIO
    TITLE "Rocket"
    PERFORMER "Def Leppard"
    INDEX 01 00:00:00
  TRACK 09 AUDIO
    TITLE "When Love & Hate Collide"
    PERFORMER "Def Leppard"
    INDEX 00 04:06:70
FILE "(9) When Love & Hate Collide - Def Leppard.wav" WAVE
    INDEX 01 00:00:00
  TRACK 10 AUDIO
    TITLE "Action"
    PERFORMER "Def Leppard"
    INDEX 00 04:16:58
FILE "(10) Action - Def Leppard.wav" WAVE
    INDEX 01 00:00:00
FILE "(11) Make Love Like A Man - Def Leppard.wav" WAVE
  TRACK 11 AUDIO
    TITLE "Make Love Like A Man"
    PERFORMER "Def Leppard"
    INDEX 01 00:00:00
FILE "(12) Armageddon It - Def Leppard.wav" WAVE
  TRACK 12 AUDIO
    TITLE "Armageddon It"
    PERFORMER "Def Leppard"
    INDEX 01 00:00:00
FILE "(13) Have You Ever Needed Someone So Bad - Def Leppard.wav" WAVE
  TRACK 13 AUDIO
    TITLE "Have You Ever Needed Someone So Bad"
    PERFORMER "Def Leppard"
    INDEX 01 00:00:00
FILE "(14) Rock Of Ages - Def Leppard.wav" WAVE
  TRACK 14 AUDIO
    TITLE "Rock Of Ages"
    PERFORMER "Def Leppard"
    INDEX 01 00:00:00
FILE "(15) Hysteria - Def Leppard.wav" WAVE
  TRACK 15 AUDIO
    TITLE "Hysteria"
    PERFORMER "Def Leppard"
    INDEX 01 00:00:00
FILE "(16) Bringin' On The Heartbreak - Def Leppard.wav" WAVE
  TRACK 16 AUDIO
    TITLE "Bringin' On The Heartbreak"
    PERFORMER "Def Leppard"
    INDEX 01 00:00:00


AUDIO
Format                      : FLAC
Format/Info                 : Free Lossless Audio Codec
Bit rate mode               : Variable
Bit rate                    : 1000 Kbps
Channel positions           : Front: L R
Sampling rate               : 44.1 KHz
Bit depth                   : 16 bits

DESCARGA POR MEGA
TheDalas


The_dalas
[FLAC] Vault - Def Leppard Greatest Hits [Album]
20 Puntos Score: 10/10
Visitas: 250 Favoritos: 0
Ver los usuarios que votaron...
6 Comentarios [FLAC] Vault - Def Leppard Greatest Hits [Album]
Muchas gracias!!. En Flac es otra cosa  . Saludos!!
Este album no era el que contenia doble disco... el otro disco es en vivo desde el wembley stadium...
@esmnerv  
@francko_cl  Pues si tienes razon   salieron varias versiones de este album, pero este es solo el que contenia un disco simple.
Para dejar un comentario Registrate! o.. eres ya usuario? Accede!