[FLAC] Eric Johnson - Ah Via Musicom [Album]

Eric Johnson - Ah Via Musicom


TRACKLIST

1. Ah Via Musicom - 2:04
2. Cliffs of Dover - 4:10
3. Desert Rose - 4:55
4. High Landrons - 5:46
5. Steve's Boogie - 1:51
6. Trademark - 4:45
7. Nothing Can Keep Me From You - 4:23
8. Song For George - 1:47
9. Righteous - 3:27
10.Forty Mile Town - 4:13
11.East Wes - 3:28

INFO

Ah Via Musicom es el segundo álbum de estudio del guitarrista Eric Johnson. Fue grabado durante el período que abarca Marzo de 1988 hasta Junio de 1989. Este álbum es considerado uno de los más conocidos de Eric Johnson por contener la canción Cliffs of Dover. Esta canción, según la revista Rolling Stone es la que contiene el 17º mejor solo de guitarra de la historia.

CUE

REM GENRE rock
REM DATE 1990
REM DISCID 7C099E0B
REM COMMENT "ExactAudioCopy v0.99pb4"
PERFORMER "Eric Johnson"
TITLE "Ah Via Musicom"
FILE "Eric Johnson - Ah Via Musicom - 01 - Ah Via Musicom.wav" WAVE
  TRACK 01 AUDIO
    TITLE "Ah Via Musicom"
    PERFORMER "Eric Johnson"
    PREGAP 00:00:33
    INDEX 01 00:00:00
  TRACK 02 AUDIO
    TITLE "Cliffs Of Dover"
    PERFORMER "Eric Johnson"
    INDEX 00 02:05:07
FILE "Eric Johnson - Ah Via Musicom - 02 - Cliffs Of Dover.wav" WAVE
    INDEX 01 00:00:00
  TRACK 03 AUDIO
    TITLE "Desert Rose"
    PERFORMER "Eric Johnson"
    INDEX 00 04:10:01
FILE "Eric Johnson - Ah Via Musicom - 03 - Desert Rose.wav" WAVE
    INDEX 01 00:00:00
FILE "Eric Johnson - Ah Via Musicom - 04 - High Landrons.wav" WAVE
  TRACK 04 AUDIO
    TITLE "High Landrons"
    PERFORMER "Eric Johnson"
    INDEX 01 00:00:00
FILE "Eric Johnson - Ah Via Musicom - 05 - Steve's Boogie.wav" WAVE
  TRACK 05 AUDIO
    TITLE "Steve's Boogie"
    PERFORMER "Eric Johnson"
    INDEX 01 00:00:00
FILE "Eric Johnson - Ah Via Musicom - 06 - Trademark.wav" WAVE
  TRACK 06 AUDIO
    TITLE "Trademark"
    PERFORMER "Eric Johnson"
    INDEX 01 00:00:00
FILE "Eric Johnson - Ah Via Musicom - 07 - Nothing Can Keep Me From You.wav" WAVE
  TRACK 07 AUDIO
    TITLE "Nothing Can Keep Me From You"
    PERFORMER "Eric Johnson"
    INDEX 01 00:00:00
  TRACK 08 AUDIO
    TITLE "Song For George"
    PERFORMER "Eric Johnson"
    INDEX 00 04:23:29
FILE "Eric Johnson - Ah Via Musicom - 08 - Song For George.wav" WAVE
    INDEX 01 00:00:00
FILE "Eric Johnson - Ah Via Musicom - 09 - Righteous.wav" WAVE
  TRACK 09 AUDIO
    TITLE "Righteous"
    PERFORMER "Eric Johnson"
    INDEX 01 00:00:00
FILE "Eric Johnson - Ah Via Musicom - 10 - Forty Mile Town.wav" WAVE
  TRACK 10 AUDIO
    TITLE "Forty Mile Town"
    PERFORMER "Eric Johnson"
    INDEX 01 00:00:00
  TRACK 11 AUDIO
    TITLE "East West"
    PERFORMER "Eric Johnson"
    INDEX 00 04:13:03
FILE "Eric Johnson - Ah Via Musicom - 11 - East West.wav" WAVE
    INDEX 01 00:00:00

AUDIO

Format                      : FLAC
Format/Info                 : Free Lossless Audio Codec
Bit rate mode               : Variable
Bit rate                    : 917 Kbps
Channel positions           : Front: L R
Sampling rate               : 44.1 KHz
Bit depth                   : 16 bits


DESCARGA POR MEGA

TheDalas


The_dalas
[FLAC] Eric Johnson - Ah Via Musicom [Album]
40 Puntos Score: 10/10
Visitas: 170 Favoritos: 0
Ver los usuarios que votaron...
5 Comentarios [FLAC] Eric Johnson - Ah Via Musicom [Album]
Excelente material. Gracias
En flacccc
siiiiiiiiiiiiiiiiiiiiiiiiiiii
@R0BERTIT0 @bar_tolome Que lo disfruten y gracias por pasar y comentar
@mac21x Gracias por pasar y los puntines  
Para dejar un comentario Registrate! o.. eres ya usuario? Accede!