jacku
"Solo Comparto Calidad 720p"

Batman V Superman Dawn Of Justice Theatrical-720p



Ficha Técnica:

Título original: Batman vs Superman: Dawn of Justice
Fecha de lanzamiento: 2016
Duración: 151 min
País: USA
Director: Zack Snyder
 

Datos Tecnicos:

File: Batman-v-Superman-Theatrical-720p-Lat-ing.mkv
Complete name               : C:\Users\Julio Gómez\Videos\BvS\Batman V Superman Dawn Of Justice (2016).mkv
Format                      : Matroska
Format version              : Version 4 / Version 2
File size                   : 2.34 GiB
Duration                    : 2 h 31 min
Overall bit rate            : 2 206 kb/s
Movie name                  : Batman v. Superman: Dawn of Justice (2016) Encode by Invulnever - Pocos Megas HD
Encoded date                : UTC 2016-06-28 18:42:20
Writing application         : mkvmerge v7.8.0 ('River Man') 32bit built on Mar 27 2015 16:18:02
Writing library             : libebml v1.3.1 + libmatroska v1.4.2

Video
ID                          : 1
Format                      : AVC
Format/Info                 : Advanced Video Codec
Format profile              : [email protected]
Format settings, CABAC      : Yes
Format settings, ReFrames   : 4 frames
Codec ID                    : V_MPEG4/ISO/AVC
Duration                    : 2 h 31 min
Bit rate                    : 1 500 kb/s
Width                       : 1 280 pixels
Height                      : 532 pixels
Display aspect ratio        : 2.40:1
Frame rate mode             : Variable
Frame rate                  : 23.976 FPS
Color space                 : YUV
Chroma subsampling          : 4:2:0
Bit depth                   : 8 bits
Scan type                   : Progressive
Bits/(Pixel*Frame)          : 0.092
Stream size                 : 1.59 GiB (68%)
Writing library             : x264 core 142 r2479 dd79a61

Default                     : Yes
Forced                      : No
Color range                 : Limited
Color primaries             : BT.709
Transfer characteristics    : BT.709
Matrix coefficients         : BT.709

Audio #1
ID                          : 2
Format                      : AC-3
Format/Info                 : Audio Coding 3
Mode extension              : CM (complete main)
Format settings, Endianness : Big
Codec ID                    : A_AC3
Duration                    : 2 h 31 min
Bit rate mode               : Constant
Bit rate                    : 320 kb/s
Channel(s)                  : 6 channels
Channel positions           : Front: L C R, Side: L R, LFE
Sampling rate               : 48.0 kHz
Frame rate                  : 31.250 FPS (1536 spf)
Compression mode            : Lossy
Stream size                 : 347 MiB (15%)
Language                    : English
Default                     : No
Forced                      : No

Audio #2
ID                          : 3
Format                      : AC-3
Format/Info                 : Audio Coding 3
Mode extension              : CM (complete main)
Format settings, Endianness : Big
Codec ID                    : A_AC3
Duration                    : 2 h 31 min
Bit rate mode               : Constant
Bit rate                    : 384 kb/s
Channel(s)                  : 6 channels
Channel positions           : Front: L C R, Side: L R, LFE
Sampling rate               : 48.0 kHz
Frame rate                  : 31.250 FPS (1536 spf)
Compression mode            : Lossy
Stream size                 : 416 MiB (17%)
Language                    : Latin
Default                     : Yes
Forced                      : No

Text #1
ID                          : 4
Format                      : UTF-8
Codec ID                    : S_TEXT/UTF8
Codec ID/Info               : UTF-8 Plain Text
Duration                    : 2 h 19 min
Bit rate                    : 2 b/s
Count of elements           : 86
Stream size                 : 2.52 KiB (0%)
Title                       : Forzados
Language                    : Spanish
Default                     : Yes
Forced                      : No

Text #2
ID                          : 5
Format                      : UTF-8
Codec ID                    : S_TEXT/UTF8
Codec ID/Info               : UTF-8 Plain Text
Duration                    : 2 h 22 min
Bit rate                    : 36 b/s
Count of elements           : 1279
Stream size                 : 38.2 KiB (0%)
Language                    : Spanish
Default                     : No
Forced                      : No

Menu
00:00:00.000                : en:1
00:09:48.088                : en:2
00:20:45.161                : en:3
00:29:58.089                : en:4
00:38:46.159                : en:5
00:49:25.090                : en:6
00:59:21.102                : en:7
01:10:06.164                : en:8
01:21:14.124                : en:9
01:30:00.108                : en:10
01:38:20.150                : en:11
01:49:57.097                : en:12
02:01:48.099                : en:13
02:10:40.131                : en:14
02:18:41.112                : en:15
02:23:50.088                : en:16


 

Capturas







Mega



Batman V Superman Dawn Of Justice Theatrical-720p
0 Puntos Score: 0/10
Visitas: 1268 Favoritos: 0
8 Comentarios Batman V Superman Dawn Of Justice Theatrical-720p
una pregunta esta todo en latino o tiene partes en ingles
Gracias,bajando  
ok,gracias por responderme
Para dejar un comentario Registrate! o.. eres ya usuario? Accede!