The Raid I & II 1080p


Ficha tecnica

Título original:
Serbuan maut
Año:
2011
Duración:
101 min
País:
Indonesia, USA, France
Director:
Gareth Evans
Escritor:
Gareth Evans
Reparto:
Iko Uwais, Joe Taslim, Donny Alamsyah, Yayan Ruhian
Productora:
Pt. Merantau Films,Celluloid Dreams,XYZ Films
Género:
Acción,Crimen,Novela de suspense

Info media

General
Format                                   : Matroska
Format version                           : Version 4 / Version 2
File size                                : 2.87 GiB
Duration                                 : 1h 41mn
Overall bit rate                         : 4 067 Kbps
Movie name                               : The Raid: Redemption (2011) UNRATED - 1080p - Molpol


Video
ID                                       : 1
Format                                   : AVC
Format/Info                              : Advanced Video Codec
Format profile                           : [email protected]
Format settings, CABAC                   : Yes
Format settings, ReFrames                : 2 frames
Codec ID                                 : V_MPEG4/ISO/AVC
Duration                                 : 1h 41mn
Width                                    : 1 920 pixels
Height                                   : 1 080 pixels
Display aspect ratio                     : 16:9
Frame rate mode                          : Constant
Frame rate                               : 23.976 fps
Color space                              : YUV
Chroma subsampling                       : 4:2:0
Bit depth                                : 8 bits
Scan type                                : Progressive
Writing library                          : x264 core
Default                                  : Yes
Forced                                   : No
Color primaries                          : BT.709
Transfer characteristics                 : BT.709
Matrix coefficients                      : BT.709


Audio #1
ID                                       : 2
Format                                   : AC-3
Format/Info                              : Audio Coding 3
Mode extension                           : CM (complete main)
Format settings, Endianness              : Big
Codec ID                                 : A_AC3
Duration                                 : 1h 41mn
Bit rate mode                            : Constant
Bit rate                                 : 448 Kbps
Channel(s)                               : 6 channels
Channel positions                        : Front: L C R, Side: L R, LFE
Sampling rate                            : 48.0 KHz
Bit depth                                : 16 bits
Compression mode                         : Lossy
Stream size                              : 324 MiB (11%)
Language                                 : Latin
Default                                  : Yes
Forced                                   : No


Audio #2
ID                                       : 3
Format                                   : AAC
Format/Info                              : Advanced Audio Codec
Format profile                           : HE-AAC / LC
Codec ID                                 : A_AAC
Duration                                 : 1h 41mn
Channel(s)                               : 2 channels
Channel positions                        : Front: L R
Sampling rate                            : 48.0 KHz / 24.0 KHz
Compression mode                         : Lossy
Language                                 : Indonesian
Default                                  : No
Forced                                   : No


Audio #3
ID                                       : 4
Format                                   : AC-3
Format/Info                              : Audio Coding 3
Mode extension                           : CM (complete main)
Format settings, Endianness              : Big
Codec ID                                 : A_AC3
Duration                                 : 1h 41mn
Bit rate mode                            : Constant
Bit rate                                 : 448 Kbps
Channel(s)                               : 6 channels
Channel positions                        : Front: L C R, Side: L R, LFE
Sampling rate                            : 48.0 KHz
Bit depth                                : 16 bits
Compression mode                         : Lossy
Stream size                              : 324 MiB (11%)
Language                                 : English
Default                                  : No
Forced                                   : No


Text #1
ID                                       : 5
Format                                   : UTF-8
Codec ID                                 : S_TEXT/UTF8
Codec ID/Info                            : UTF-8 Plain Text
Language                                 : Latin
Default                                  : No
Forced                                   : No


Text #2
ID                                       : 6
Format                                   : UTF-8
Codec ID                                 : S_TEXT/UTF8
Codec ID/Info                            : UTF-8 Plain Text
Language                                 : English
Default                                  : No
Forced                                   : No


Sinopsis


Todo el mundo en Jakarta sabe que en los barrios bajos de la ciudad hay un edificio que sirve de refugio para los criminales más peligrosos de Indonesia. Algo así como una fortaleza del mal cuya leyenda crece día a día y a la que incluso la policía teme acercarse. Pese a ello, un grupo de fuerzas especiales de élite intentará derribar sus defensas y penetrar en sus entrañas. Pero la operación no sale según lo previsto, y los policías se encontrarán atrapados en el edificio, sin escapatoria posible y rodeados de asesinos y gángsters.








                                      

Ficha tecnica

Título original:
The Raid 2: Berandal
Año:
2014
Duración:
150 min
País:
Indonesia, USA
Director:
Gareth Evans
Escritor:
Gareth Evans
Reparto:
Iko Uwais, Julie Estelle, Yayan Ruhian, Arifin Putra
Productora:
XYZ Films,Pt. Merantau Films
Género:
Acción,Crimen,Novela de suspense

Info media

General
Format                                   : Matroska
Format version                           : Version 4 / Version 2
File size                                : 4.67 GiB
Duration                                 : 2h 30mn
Overall bit rate                         : 4 440 Kbps
Movie name                               : The Raid 2 (2014) - 1080p - Molpol


Video
ID                                       : 1
Format                                   : AVC
Format/Info                              : Advanced Video Codec
Format profile                           : [email protected]
Format settings, CABAC                   : Yes
Format settings, ReFrames                : 2 frames
Codec ID                                 : V_MPEG4/ISO/AVC
Duration                                 : 2h 30mn
Bit rate                                 : 3 008 Kbps
Width                                    : 1 920 pixels
Height                                   : 1 080 pixels
Display aspect ratio                     : 16:9
Frame rate mode                          : Constant
Frame rate                               : 23.976 fps
Color space                              : YUV
Chroma subsampling                       : 4:2:0
Bit depth                                : 8 bits
Scan type                                : Progressive
Bits/(Pixel*Frame)                       : 0.060
Stream size                              : 3.16 GiB (68%)
Writing library                          : x264 core
Default                                  : Yes
Forced                                   : No
Color primaries                          : BT.709
Transfer characteristics                 : BT.709
Matrix coefficients                      : BT.709


Audio #1
ID                                       : 2
Format                                   : AC-3
Format/Info                              : Audio Coding 3
Mode extension                           : CM (complete main)
Format settings, Endianness              : Big
Codec ID                                 : A_AC3
Duration                                 : 2h 30mn
Bit rate mode                            : Constant
Bit rate                                 : 448 Kbps
Channel(s)                               : 6 channels
Channel positions                        : Front: L C R, Side: L R, LFE
Sampling rate                            : 48.0 KHz
Bit depth                                : 16 bits
Compression mode                         : Lossy
Stream size                              : 482 MiB (10%)
Language                                 : Latin
Default                                  : Yes
Forced                                   : No


Audio #2
ID                                       : 3
Format                                   : AC-3
Format/Info                              : Audio Coding 3
Mode extension                           : CM (complete main)
Format settings, Endianness              : Big
Codec ID                                 : A_AC3
Duration                                 : 2h 30mn
Bit rate mode                            : Constant
Bit rate                                 : 448 Kbps
Channel(s)                               : 6 channels
Channel positions                        : Front: L C R, Side: L R, LFE
Sampling rate                            : 48.0 KHz
Bit depth                                : 16 bits
Compression mode                         : Lossy
Stream size                              : 482 MiB (10%)
Language                                 : Indonesian
Default                                  : No
Forced                                   : No


Audio #3
ID                                       : 4
Format                                   : AC-3
Format/Info                              : Audio Coding 3
Mode extension                           : CM (complete main)
Format settings, Endianness              : Big
Codec ID                                 : A_AC3
Duration                                 : 2h 30mn
Bit rate mode                            : Constant
Bit rate                                 : 448 Kbps
Channel(s)                               : 6 channels
Channel positions                        : Front: L C R, Side: L R, LFE
Sampling rate                            : 48.0 KHz
Bit depth                                : 16 bits
Compression mode                         : Lossy
Stream size                              : 482 MiB (10%)
Language                                 : English
Default                                  : No
Forced                                   : No


Text #1
ID                                       : 5
Format                                   : PGS
Muxing mode                              : zlib
Codec ID                                 : S_HDMV/PGS
Codec ID/Info                            : The same subtitle format used on BDs/HD-DVDs
Language                                 : Latin
Default                                  : No
Forced                                   : No


Text #2
ID                                       : 6
Format                                   : PGS
Muxing mode                              : zlib
Codec ID                                 : S_HDMV/PGS
Codec ID/Info                            : The same subtitle format used on BDs/HD-DVDs
Language                                 : English
Default                                  : No
Forced                                   : No

Sinopsis

Poco después de finalizar la sangrienta redada, el inspector Rama se ve obligado a infiltrarse en las filas del sindicato del crimen de Yakarta con el fin de proteger a su familia y descubrir la corrupción en el seno de su propia fuerza policial.




The Raid I & II 1080p
75 Puntos Score: 7.5/10
Visitas: 1378 Favoritos: 9
Ver los usuarios que votaron...
10 Comentarios The Raid I & II 1080p
+5 lastima que por el peso no pueda bajarmela
@Gussthavo Tarde lo que tarde en bajar, vale la pena mirar esta pelicula en buena calidad, muchas gracias por este aportazo @adonis1322
muy buenas pelis  
Muy buenisimas pelis amigo gracias por compartirlas, saludos
Gracias Capo Me Llevo Las Dos  
Gracias por compartir.....    
Me llevo la 2...muchas gracias
Para dejar un comentario Registrate! o.. eres ya usuario? Accede!