La Teoria del Big Bang[S10-E05-720p]HDTV-x265 ZP

La Teoria del Big Bang[S10-E05-720p]HDTV-x265 ZP




Título original:    The Big Bang Theory (TV Series)
Año:    2007
Duración:    20 min.
País:    Estados Unidos Estados Unidos
Director:    Chuck Lorre (Creator), Bill Prady (Creator), Mark Cendrowski, Peter Chakos, Anthony Joseph Rich, James Burrows, Howard Murray, Ted Wass, Andrew D. Weyman, Joel Murray
Guión:    Chuck Lorre, Bill Prady, Steven Molaro, Maria Ferrari, Steve Holland, Jim Reynolds, Eric Kaplan, Lee Aronsohn, David Goetsch
Música:    Barenaked Ladies, Joe Fischer
Fotografía:    Steven V. Silver
Reparto:    Johnny Galecki, Jim Parsons, Kaley Cuoco, Simon Helberg, Kunal Nayyar, Melissa Rauch, Mayim Bialik, Sara Gilbert, Kevin Sussman, John Ross Bowie, Carol Ann Susi, Aarti Mann, Brian George, Wil Wheaton, Laurie Metcalf, Christine Baranski, Kate Micucci, Casey Sander
Productora:    Emitida por la cadena CBS; Warner Bros. Television
Género:    Serie de TV. Comedia | Sitcom. Amistad
Web oficial:    http://www.cbs.com/primetime/big_bang_theory/

Sinopsis

    Serie de TV (2007-Actualidad). Leonard (Johnny Galecki) y Sheldon (Jim Parsons) son dos cerebros privilegiados que comparten piso. Aunque los dos, doctores en Física, son capaces de calcular las probabilidades de existencia de otros mundos, no saben cómo relacionarse con los demás, especialmente con las chicas. Penny (Kaley Cuoco), una vecina recién llegada, es el polo opuesto a los dos amigos, de modo que su llegada altera la tranquila vida sentimental de Leonard y el desorden obsesivo-compulsivo de Sheldon.





General
La Teoria del big bang[S10-E05-720p]HDTV-x265.mkv
Format                         : Matroska
Format version                 : Version 2
File size                      : 105 MiB
Duration                       : 19 min 56 s
Overall bit rate               : 733 kb/s
Encoded date                   : UTC 2016-10-18 01:11:50
Writing application            : mkvmerge v7.8.0 ('River Man') 32bit built on Mar 27 2015 16:18:02
Writing library                : libebml v1.3.1 + libmatroska v1.4.2

Video
ID                             : 1
Format                         : HEVC
Format/Info                    : High Efficiency Video Coding
Format profile                 : [email protected]@Main
Codec ID                       : V_MPEGH/ISO/HEVC
Duration                       : 19 min 56 s
Bit rate                       : 667 kb/s
Width                          : 1 280 pixels
Height                         : 720 pixels
Display aspect ratio           : 16:9
Frame rate mode                : Constant
Frame rate                     : 23.976 (24000/1001) FPS
Color space                    : YUV
Chroma subsampling             : 4:2:0
Bit depth                      : 8 bits
Bits/(Pixel*Frame)             : 0.030
Stream size                    : 95.2 MiB (91%)
Forced                         : No

Audio
ID                             : 2
Format                         : AAC
Format/Info                    : Advanced Audio Codec
Format profile                 : HE-AAC / LC
Codec ID                       : A_AAC
Duration                       : 19 min 55 s
Bit rate                       : 64.0 kb/s
Channel(s)                     : 2 channels
Channel positions              : Front: L R
Sampling rate                  : 48.0 kHz / 24.0 kHz
Frame rate                     : 23.438 FPS (1024 spf)
Compression mode               : Lossy
Delay relative to video        : 31 ms
Stream size                    : 9.12 MiB (9%)
Default                        : Yes
Forced                         : No











La Teoria del Big Bang[S10-E05-720p]HDTV-x265 ZP
24 Puntos Score: 8/10
Visitas: 369 Favoritos: 0
Ver los usuarios que votaron...
3 Comentarios La Teoria del Big Bang[S10-E05-720p]HDTV-x265 ZP
amigo por casualidad no tienes el audio en laino de capitulo 10x03
Gracias men pero "File does not exist on this server" lo eliminaron  
Para dejar un comentario Registrate! o.. eres ya usuario? Accede!