Oops.. Este post tiene los enlaces eliminados!

Identi revisa las denuncias de los usuarios en busca de enlaces eliminados que no dejan descargar los archivos, este mensaje te informa que este post que estas viendo tiene los enlaces eliminados.

Usa el Buscador

Por favor, te recomendamos que uses el buscador para encontrar más alternativas.

Star trek beyond [2016]720p Brrip x265[latino]MEGA

  • Categoría: Reciclaje
  • Publicado hace más de 1 mes
Star trek beyond [2016]720p Brrip x265[latino]MEGA 10 Bits





Título original:    Star Trek Beyond
Año:    2016
Duración:    120 min.
País:    Estados Unidos Estados Unidos
Director:    Justin Lin
Guión:    Simon Pegg, Doug Jung, Roberto Orci, John D. Payne, Patrick McKay (Personajes: Gene Roddenberry)
Música:    Michael Giacchino
Fotografía:    Stephen F. Windon
Reparto:    Chris Pine, Zachary Quinto, Zoe Saldana, Karl Urban, Simon Pegg, Anton Yelchin, John Cho, Idris Elba, Sofia Boutella, Joseph Gatt, Deep Roy, Lydia Wilson, Joe Taslim, Adam DiMarco, Ashley Edner, Christian Sloan, Jodi Haynes
Productora:    Paramount Pictures / Bad Robot / Skydance Productions
Género:    Ciencia ficción. Aventuras. Acción | Aventura espacial. Star Trek. Secuela
Grupos:    Star Trek | Star Trek (Bad Robot) Novedad

Sinopsis

    El USS Enterprise, la nave insignia de la Flota Estelar liderada por el capitán James T. Kirk (Chris Pine), vuelve a surcar el universo para asegurarse de la protección de la Tierra y del resto de planetas aliados. Pero la tranquilidad durará poco y el peligro acecha. La primera etapa de su misión les llevará a un territorio desconocido, y su travesía de vigilancia pronto se convertirá en una carrera por la supervivencia espacial cuando se enfrenten a un nuevo y fiero enemigo, Krall (Idris Elba), una especie alienígena avanzada. Para frenar sus siniestros planes, Kirk deberá reunir a su equipo y usar todo sus recursos para resolver los desafíos a los que se enfrentarán. A la vez que intentan encontrar el modo de volver a la Tierra, su misión será proteger el futuro de la raza humana y preservar la armonía entre especies... Tercera entrega de la nueva saga de Star Trek.




General
Star.trek.beyond.2016.720p.Bluray.x265[latino].mkv
Format                         : Matroska
Format version                 : Version 4 / Version 2
File size                      : 811 MiB
Duration                       : 2 h 2 min

Overall bit rate               : 927 kb/s
Encoded date                   : UTC 2016-10-19 14:25:51
Writing application            : mkvmerge v8.3.0 ('Over the Horizon') 64bit
Writing library                : libebml v1.3.1 + libmatroska v1.4.2

Video
ID                             : 1
Format                         : HEVC
Format/Info                    : High Efficiency Video Coding
Format profile                 : Main [email protected]@Main
Codec ID                       : V_MPEGH/ISO/HEVC
Duration                       : 2 h 2 min
Bit rate                       : 669 kb/s
Width                          : 1 280 pixels
Height                         : 536 pixels

Display aspect ratio           : 2.40:1
Frame rate mode                : Constant
Frame rate                     : 23.976 (24000/1001) FPS
Color space                    : YUV
Chroma subsampling             : 4:2:0
Bit depth                      : 10 bits
Bits/(Pixel*Frame)             : 0.041
Stream size                    : 586 MiB (72%)
Default                        : Yes
Forced                         : No
Color range                    : Limited
Color primaries                : BT.709
Transfer characteristics       : BT.709
Matrix coefficients            : BT.709

Audio
ID                             : 2
Format                         : AC-3
Format/Info                    : Audio Coding 3
Mode extension                 : CM (complete main)
Format settings, Endianness    : Big
Codec ID                       : A_AC3
Duration                       : 2 h 2 min
Bit rate mode                  : Constant
Bit rate                       : 256 kb/s
Channel(s)                     : 2 channels
Channel positions              : Front: L R
Sampling rate                  : 48.0 kHz
Frame rate                     : 31.250 FPS (1536 spf)
Compression mode               : Lossy
Delay relative to video        : 979 ms
Stream size                    : 224 MiB (28%)
Language                       : Spanish
Default                        : Yes
Forced                         : No

Text
ID                             : 3
Format                         : UTF-8
Codec ID                       : S_TEXT/UTF8
Codec ID/Info                  : UTF-8 Plain Text
Duration                       : 59 min 3 s
Bit rate                       : 0 b/s
Count of elements              : 15
Stream size                    : 371 Bytes (0%)
Language                       : Spanish
Default                        : Yes
Forced                         : No
















NO PASO LINKS POR MP, MEGA ME ESTA BORRANDO ARCHIVOS



Star trek beyond [2016]720p Brrip x265[latino]MEGA
40 Puntos Score: 10/10
Visitas: 717 Favoritos: 3
Ver los usuarios que votaron...
5 Comentarios Star trek beyond [2016]720p Brrip x265[latino]MEGA
Me ganaste también la tengo en latino y 265, excelente aporte  
Excelente Aporte Amigo   No tienes por casualidad las anteriores en esta calidad y en x265.
Este post esta cerrado y no se permiten comentarios.
Para dejar un comentario Registrate! o.. eres ya usuario? Accede!