Oops.. Este post tiene los enlaces eliminados!

Identi revisa las denuncias de los usuarios en busca de enlaces eliminados que no dejan descargar los archivos, este mensaje te informa que este post que estas viendo tiene los enlaces eliminados.

Usa el Buscador

Por favor, te recomendamos que uses el buscador para encontrar más alternativas.

Rango [2011] EXTENDED 720p Brrip x264 Latino MEGA

  • Categoría: Reciclaje
  • Publicado hace más de 1 mes
Rango [2011] EXTENDED 720p Brrip Latino MEGA








Título original:    Rango
Duración:    111 min.
País:    Estados Unidos Estados Unidos
Director:    Gore Verbinski
Guión:    John Logan (Historia: James Ward Byrkit, Gore Verbinski)
Música:    Hans Zimmer
Fotografía:    Roger Deakins
Reparto:    Animation
Productora:    Paramount Pictures / Nickelodeon Movies / Blind Wink / GK Films
Género:    Animación. Comedia. Western. Aventuras

Sinopsis

    El actor Rango es un solitario camaleón que vive en la inmensidad del desierto Mojave. Quiere ser un representante de la ley en un sediento pueblo llamado Dirt, pero enseguida se da cuenta de que hay una gran diferencia entre actuar y vivir la vida real, así que no tiene más remedio que enfrentarse a algunos aspectos de su identidad y aprender el significado y el valor de la amistad. Su misión consistirá en descubrir la conspiración que está detrás de la desaparición del agua en el pueblo. Film de animación del director de "Piratas del Caribe", con las voces originales de Johnny Depp (Rango), Abigail Breslin, Isla Fisher y Bill Nighy.




General
Rango.2011.EXTENDED.720p.Brrip.Latino.mkv
Format                         : Matroska
Format version                 : Version 4 / Version 2
File size                      : 1.43 GiB
Duration                       : 1 h 51 min

Overall bit rate               : 1 831 kb/s
Encoded date                   : UTC 2016-10-17 19:23:18
Writing application            : mkvmerge v8.3.0 ('Over the Horizon') 64bit
Writing library                : libebml v1.3.1 + libmatroska v1.4.2

Video
ID                             : 1
Format                         : AVC
Format/Info                    : Advanced Video Codec
Format profile                 : [email protected]
Format settings, CABAC         : Yes
Format settings, ReFrames      : 4 frames
Codec ID                       : V_MPEG4/ISO/AVC
Duration                       : 1 h 51 min
Bit rate                       : 1 500 kb/s
Width                          : 1 280 pixels
Height                         : 534 pixels

Display aspect ratio           : 2.40:1
Frame rate mode                : Constant
Frame rate                     : 23.976 (23976/1000) FPS
Color space                    : YUV
Chroma subsampling             : 4:2:0
Bit depth                      : 8 bits
Scan type                      : Progressive
Bits/(Pixel*Frame)             : 0.092
Stream size                    : 1.17 GiB (82%)
Writing library                : x264 core 148 r2638M 7599210
Default                        : Yes
Forced                         : No

Audio
ID                             : 2
Format                         : AC-3
Format/Info                    : Audio Coding 3
Mode extension                 : CM (complete main)
Format settings, Endianness    : Big
Codec ID                       : A_AC3
Duration                       : 1 h 51 min
Bit rate mode                  : Constant
Bit rate                       : 320 kb/s
Channel(s)                     : 6 channels
Channel positions              : Front: L C R, Side: L R, LFE
Sampling rate                  : 44.1 kHz
Frame rate                     : 28.711 FPS (1536 spf)
Compression mode               : Lossy
Stream size                    : 256 MiB (17%)
Language                       : Spanish
Default                        : Yes
Forced                         : No

Text
ID                             : 3
Format                         : PGS
Muxing mode                    : zlib
Codec ID                       : S_HDMV/PGS
Codec ID/Info                  : Picture based subtitle format used on BDs/HD-DVDs
Duration                       : 1 h 44 min
Bit rate                       : 9 907 b/s
Count of elements              : 2513
Stream size                    : 7.38 MiB (1%)
Language                       : Spanish
Default                        : Yes
Forced                         : No











 







Rango [2011] EXTENDED 720p Brrip x264 Latino MEGA
65 Puntos Score: 9.3/10
Visitas: 716 Favoritos: 1
Ver los usuarios que votaron...
0 Comentarios Rango [2011] EXTENDED 720p Brrip x264 Latino MEGA
Este post esta cerrado y no se permiten comentarios.
Para dejar un comentario Registrate! o.. eres ya usuario? Accede!