Oops.. Este post tiene los enlaces eliminados!

Identi revisa las denuncias de los usuarios en busca de enlaces eliminados que no dejan descargar los archivos, este mensaje te informa que este post que estas viendo tiene los enlaces eliminados.

Usa el Buscador

Por favor, te recomendamos que uses el buscador para encontrar más alternativas.

Nerve [2016] BDRip x264 Subtitulada Latino Mega

  • Categoría: Reciclaje
  • Publicado hace más de 1 mes
Nerve [2016] BDRip x264 Subtitulada Latino Mega



Título original:    Nerve
Año:    2016
Duración:    96 min.
País:    Estados Unidos Estados Unidos
Director:    Henry Joost, Ariel Schulman
Guión:    Jessica Sharzer (Novela: Jeanne Ryan)
Música:    Rob Simonsen
Fotografía:    Michael Simmonds
Reparto:    Emma Roberts, Dave Franco, Juliette Lewis, Emily Meade, Machine Gun Kelly, Kimiko Glenn, Samira Wiley, Marc John Jefferies, Jonny Beauchamp, Miles Heizer
Productora:    Lionsgate Films / Allison Shearmur Productions
Género:    Thriller | Internet / Informática

Sinopsis

    Una estudiante de secundaria se encuentra a sí misma inmersa en un juego online de "verdad o acción" (truth or dare), donde cada movimiento empieza a ser manipulado por una comunidad anónima de "observadores".




General
Nerve.2016.BDRip.x264.mkv
Format                         : Matroska
Format version                 : Version 4 / Version 2
File size                      : 769 MiB
Duration                       : 1 h 36 min

Overall bit rate               : 1 116 kb/s
Encoded date                   : UTC 2016-10-12 04:46:16
Writing application            : mkvmerge v8.3.0 ('Over the Horizon') 64bit
Writing library                : libebml v1.3.1 + libmatroska v1.4.2

Video
ID                             : 1
Format                         : AVC
Format/Info                    : Advanced Video Codec
Format profile                 : [email protected]
Format settings, CABAC         : Yes
Format settings, ReFrames      : 5 frames
Codec ID                       : V_MPEG4/ISO/AVC
Duration                       : 1 h 36 min
Bit rate                       : 990 kb/s
Width                          : 720 pixels
Height                         : 300 pixels

Display aspect ratio           : 2.40:1
Frame rate mode                : Constant
Frame rate                     : 23.976 FPS
Color space                    : YUV
Chroma subsampling             : 4:2:0
Bit depth                      : 8 bits
Scan type                      : Progressive
Bits/(Pixel*Frame)             : 0.191
Stream size                    : 682 MiB (89%)
Title                          : X264
Writing library                : x264 core 148 r2692 64f4e24
Language                       : English
Default                        : Yes
Forced                         : No
Color range                    : Limited
Matrix coefficients            : BT.709

Audio
ID                             : 2
Format                         : AAC
Format/Info                    : Advanced Audio Codec
Format profile                 : LC
Codec ID                       : A_AAC
Duration                       : 1 h 36 min
Bit rate                       : 123 kb/s
Channel(s)                     : 2 channels
Channel positions              : Front: L R
Sampling rate                  : 48.0 kHz
Frame rate                     : 46.875 FPS (1024 spf)
Compression mode               : Lossy
Stream size                    : 85.0 MiB (11%)
Language                       : English
Default                        : Yes
Forced                         : No















Nerve [2016] BDRip x264 Subtitulada Latino Mega
0 Puntos Score: 0/10
Visitas: 1417 Favoritos: 1
4 Comentarios Nerve [2016] BDRip x264 Subtitulada Latino Mega
Gracias por el aporte. Bajando..
@loquillo1 @Lesstar aprovechen en cuanto salga el audio latino lo subire  
Este post esta cerrado y no se permiten comentarios.
Para dejar un comentario Registrate! o.. eres ya usuario? Accede!