Oops.. Este post tiene los enlaces eliminados!

Identi revisa las denuncias de los usuarios en busca de enlaces eliminados que no dejan descargar los archivos, este mensaje te informa que este post que estas viendo tiene los enlaces eliminados.

Usa el Buscador

Por favor, te recomendamos que uses el buscador para encontrar más alternativas.

Supergirl S02E01 720p HDTV x265 subs Mega

  • Categoría: Reciclaje
  • Publicado hace más de 1 mes
Supergirl S02E01 720p HDTV x265 subs Mega





Título original:    Supergirl (TV Series)
Año:    2015
Duración:    43 min.
País:    Estados Unidos Estados Unidos
Director:    Glen Winter, Dermott Downs, Larry Teng, Thor Freudenthal, Karen Gaviola, Jesse Warn, Kevin Tancharoen, Lexi Alexander, Jamie Babbit, Steve Shill
Guión:    Ali Adler, Greg Berlanti, Andrew Kreisberg, Caitlin Parrish, Derek Simon, Michael Grassi, Yahlin Chang, Ted Sullivan (Personaje: Jerry Siegel)
Música:    Blake Neely
Fotografía:    Jeffrey C. Mygatt, Michael Barrett
Reparto:    Melissa Benoist, Mehcad Brooks, Chyler Leigh, Laura Benanti, Jaidan Jiron, Dean Cain, Calista Flockhart, Toni French, David Harewood, Helen Slater, Jenna Dewan, Cody Kennedy, Jeremy Jordan, Tara Macken, Jordan Mazarati, Brit Morgan, Peter Facinelli, Iddo Goldberg, Briana Venskus, Malina Weissman, Tristin Mays
Productora:    Berlanti Productions / Warner Bros. Television; Emitida por la cadena CBS
Género:    Serie de TV. Ciencia ficción. Acción. Fantástico | Superhéroes. Extraterrestres. DC Comics. Cómic
Grupos:    Arrowverse | Supergirl Novedad

Sinopsis

    Serie de TV. Tras once años en la Tierra, Kara Zor-El decide seguir los pasos de su célebre primo y aprovechar sus superpoderes para salvar a los ciudadanos de National City de los criminales alienígenas que amenazan la paz. Pero si quiere continuar con su vida humana, primero tendrá que crear una nueva identidad secreta.




General
Supergirl.S02E01.720p.HDTV.x265.mkv
Format                         : Matroska
Format version                 : Version 2
File size                      : 225 MiB
Duration                       : 42 min

Overall bit rate               : 741 kb/s
Encoded date                   : UTC 2016-10-11 01:50:42
Writing application            : mkvmerge v7.8.0 ('River Man') 32bit built on Mar 27 2015 16:18:02
Writing library                : libebml v1.3.1 + libmatroska v1.4.2

Video
ID                             : 1
Format                         : HEVC
Format/Info                    : High Efficiency Video Coding
Format profile                 : [email protected]@Main
Codec ID                       : V_MPEGH/ISO/HEVC
Duration                       : 42 min
Bit rate                       : 675 kb/s
Width                          : 1 280 pixels
Height                         : 720 pixels

Original height                : 714 pixels
Display aspect ratio           : 16:9
Frame rate mode                : Constant
Frame rate                     : 23.976 (24000/1001) FPS
Color space                    : YUV
Chroma subsampling             : 4:2:0
Bit depth                      : 8 bits
Bits/(Pixel*Frame)             : 0.031
Stream size                    : 205 MiB (91%)
Default                        : Yes
Forced                         : No

Audio
ID                             : 2
Format                         : AAC
Format/Info                    : Advanced Audio Codec
Format profile                 : HE-AAC / LC
Codec ID                       : A_AAC
Duration                       : 42 min
Bit rate                       : 64.0 kb/s
Channel(s)                     : 2 channels
Channel positions              : Front: L R
Sampling rate                  : 48.0 kHz / 24.0 kHz
Frame rate                     : 23.438 FPS (1024 spf)
Compression mode               : Lossy
Delay relative to video        : 31 ms
Stream size                    : 19.4 MiB (9%)
Default                        : Yes
Forced                         : No












Supergirl S02E01 720p HDTV x265 subs Mega
40 Puntos Score: 10/10
Visitas: 660 Favoritos: 1
Ver los usuarios que votaron...
7 Comentarios Supergirl S02E01 720p HDTV x265 subs Mega
Qué bien!!! Ya está la segunda temporada excelente!!! Muchas gracias por tu post saliendo del trabajo la descargo!!! Saludos!!!!
cuando vuela desde abajo no  se le ve nada con esa faldita  
Espero que las series de Dc mejoren esta temporada sobretodo Supergirl que siento que está en deuda y The Flash que ha tenido un inicio algo flojo, hasta el momento la que parece ser la mejor propuesta es Dc LoT.
Gracias por el aporte.  

Salutes.
@shaka33   que estes bien
@MLPF asi es amigo esperemos que mejore , saludos
@diargo2005  @17081987  
Este post esta cerrado y no se permiten comentarios.
Para dejar un comentario Registrate! o.. eres ya usuario? Accede!