Jeepers Creepers 2 [2003] 720p BluRay x264 Latino

Jeepers Creepers 2 [2003] 720p BluRay x264 Latino MEGA







Título original:    Jeepers Creepers 2
Año:    2003
Duración:    106 min.
País:    Estados Unidos Estados Unidos
Director:    Victor Salva
Guión:    Victor Salva (Personajes: Victor Salva)
Música:    Bennett Salvay
Fotografía:    Don E. FauntleRoy
Reparto:    Ray Wise, Jonathan Breck, Eric Nenninger, Garikayi Mutambirwa, Nicki Aycox, Drew Tyler Bell, Billy Aaron Brown, Kasan Butcher, Lena Cardwell, Marieh Delfino, Josh Hammond, Travis Schiffner, Al Santos, Justin Long
Productora:    MGM / UA presenta una producción American Zoetrope
Género:    Terror | Monstruos. Secuela
Grupos:    Jeepers Creepers Novedad


Sinopsis

    Hoy es el 22º día en el ritual alimenticio de la abominable criatura conocida como The Creeper, la cual se alimenta de los órganos arrancados vivos de sus víctimas. A este monstruo caníbal procedente de tiempos remotos le queda todavía un día más para hartarse de carne humana y desaparecer de nuevo, y aguardar en hibernación hasta su próxima temporada de caza dentro de 23 años. Taggart y sus hijos se hallan trabajando en los maizales de su propiedad cuando la bestia de enormes alas agarra al benjamín de la familia, transportándolo por los aires hacia un destino que se adivina horripilante...




General
Jeepers Creepers 2 (2003) 720p BluRay x264
Format                         : Matroska
Format version                 : Version 4 / Version 2
File size                      : 1.08 GiB
Duration                       : 1 h 44 min
Overall bit rate               : 1 479 kb/s
Encoded date                   : UTC 2016-10-10 14:20:51
Writing application            : mkvmerge v8.3.0 ('Over the Horizon') 64bit
Writing library                : libebml v1.3.1 + libmatroska v1.4.2
Cover                          : Yes
Attachments                    : Cover.jpg

Video
ID                             : 1
Format                         : AVC
Format/Info                    : Advanced Video Codec
Format profile                 : [email protected]
Format settings, CABAC         : Yes
Format settings, ReFrames      : 4 frames
Codec ID                       : V_MPEG4/ISO/AVC
Duration                       : 1 h 44 min
Bit rate                       : 1 254 kb/s
Width                          : 1 280 pixels

Height                         : 544 pixels
Display aspect ratio           : 2.35:1
Frame rate mode                : Constant
Frame rate                     : 23.976 (24000/1001) FPS
Color space                    : YUV
Chroma subsampling             : 4:2:0
Bit depth                      : 8 bits
Scan type                      : Progressive
Bits/(Pixel*Frame)             : 0.075
Stream size                    : 933 MiB (85%)
Writing library                : x264 core 142 r2479 dd79a61
Language                       : English
Default                        : Yes
Forced                         : No

Audio
ID                             : 2
Format                         : AC-3
Format/Info                    : Audio Coding 3
Mode extension                 : CM (complete main)
Format settings, Endianness    : Big
Codec ID                       : A_AC3
Duration                       : 1 h 44 min
Bit rate mode                  : Constant
Bit rate                       : 224 kb/s
Channel(s)                     : 2 channels
Channel positions              : Front: L R
Sampling rate                  : 44.1 kHz
Frame rate                     : 28.711 FPS (1536 spf)
Compression mode               : Lossy
Stream size                    : 167 MiB (15%)
Language                       : Spanish
Default                        : Yes
Forced                         : No













[/font][/size]


Jeepers Creepers 2 [2003] 720p BluRay x264 Latino
45 Puntos Score: 9/10
Visitas: 759 Favoritos: 3
Ver los usuarios que votaron...
11 Comentarios Jeepers Creepers 2 [2003] 720p BluRay x264 Latino
Estas pelís me traen buenos recuerdos jajajaja
tendras la 1 ??
Hace mucho que noa la veo, gracias  
ALGUNA VEZ SALIO LA PARTE 3 YO TENGO LA 1 Y LA 2
Cita kamori: Mostrar
La tres está programada para el 2017, ya circula el trailer en algunos lugares
Tengo entendido que para la 3 estaban buscando director.
EXCELENTE PELICULA DEL RECUERDO, ESPERANDO EL LANZAMIENTO DE LA 3°PARTE.
Links caídos  
Para dejar un comentario Registrate! o.. eres ya usuario? Accede!