Oops.. Este post tiene los enlaces eliminados!

Identi revisa las denuncias de los usuarios en busca de enlaces eliminados que no dejan descargar los archivos, este mensaje te informa que este post que estas viendo tiene los enlaces eliminados.

Usa el Buscador

Por favor, te recomendamos que uses el buscador para encontrar más alternativas.

Desierto [2015] Latino 720p bluray x264 Mega

  • Categoría: Reciclaje
  • Publicado hace más de 1 mes
Desierto [2015] Latino 720p bluray x264






Título original:    Desierto
Año:    2015
Duración:    94 min.
País:    México
Director:    Jonás Cuarón
Guión:    Jonás Cuarón, Mateo García
Música:    Woodkid
Fotografía:    Damian Garcia
Reparto:    Gael García Bernal, Jeffrey Dean Morgan, Alondra Hidalgo, Diego Cataño, Marco Pérez
Productora:    Coproducción México-Francia; Esperanto Kino / Itaca Films / CG Cinéma
Género:    Thriller. Drama | Inmigración

Sinopsis

    Moisés (Gael García Bernal) junto con otros indocumentados están cruzando a pie un estrecho camino de la frontera entre México y Estados Unidos buscando tener nuevas oportunidades del otro lado y reencontrarse con sus seres queridos. Este grupo es descubierto por Sam (Jeffrey Dean Morgan) un "vigilante" demente que disfruta eliminando a los migrantes. Ante la inclemencia del desierto, Moisés y Sam se enrolan en una persecución en la que el más fuerte sobrevivirá


MEDIA INFO


General
Desierto [2015] Latino 720p bluray x264.mkv
Format                         : Matroska
Format version                 : Version 4 / Version 2
File size                      : 750 MiB
Duration                       : 1 h 28 min
Overall bit rate               : 1 191 kb/s
Encoded date                   : UTC 2016-10-07 20:11:11
Writing application            : mkvmerge v8.3.0 ('Over the Horizon') 64bit
Writing library                : libebml v1.3.1 + libmatroska v1.4.2

Video
ID                             : 1
Format                         : AVC
Format/Info                    : Advanced Video Codec
Format profile                 : [email protected]
Format settings, CABAC         : Yes
Format settings, ReFrames      : 10 frames
Codec ID                       : V_MPEG4/ISO/AVC
Duration                       : 1 h 28 min
Bit rate                       : 1 030 kb/s
Width                          : 1 280 pixels
Height                         : 688 pixels
Display aspect ratio           : 1.85:1
Frame rate mode                : Constant
Frame rate                     : 23.976 (24000/1001) FPS
Color space                    : YUV
Chroma subsampling             : 4:2:0
Bit depth                      : 8 bits
Scan type                      : Progressive
Bits/(Pixel*Frame)             : 0.049
Stream size                    : 648 MiB (86%)
Writing library                : x264 core 142 r2479 dd79a61
Default                        : Yes
Forced                         : No
Color range                    : Limited
Color primaries                : BT.709
Transfer characteristics       : BT.709
Matrix coefficients            : BT.709

Audio
ID                             : 2
Format                         : AAC
Format/Info                    : Advanced Audio Codec
Format profile                 : LC
Codec ID                       : A_AAC
Duration                       : 1 h 28 min
Bit rate                       : 160 kb/s
Channel(s)                     : 2 channels
Channel positions              : Front: L R
Sampling rate                  : 48.0 kHz
Frame rate                     : 46.875 FPS (1024 spf)
Compression mode               : Lossy
Delay relative to video        : -21 ms
Stream size                    : 101 MiB (13%)
Title                          : Stereo
Language                       : English
Default                        : Yes
Forced                         : No

Text
ID                             : 3
Format                         : UTF-8
Codec ID                       : S_TEXT/UTF8
Codec ID/Info                  : UTF-8 Plain Text
Duration                       : 1 h 19 min
Bit rate                       : 6 b/s
Count of elements              : 168
Stream size                    : 3.63 KiB (0%)
Language                       : Spanish
Default                        : Yes
Forced                         : Yes





















Desierto [2015] Latino 720p bluray x264 Mega
15 Puntos Score: 7.5/10
Visitas: 1702 Favoritos: 3
Ver los usuarios que votaron...
11 Comentarios Desierto [2015] Latino 720p bluray x264 Mega
gracias tien tambien subtitulos en espanol
@marlorambo si bro para las partes donde hablan los gringos
Gracias exelente me la llevo, por casualidad no tienes Who is Dayani Cristal, me impacto mucho un  saludo de tierra del Fuego Arg.
@Nieshka SALUDOS amigo, si la estoy bajando en estos dias la posteo
Gracias por la subida, descargando....
no pues ahora a ver que a hecho mi compa gael,gracias
gracias por compartir
Genial gracias por compartir amigo...
Parece interesante gracias  
@camanney @lesley.fer  
@xxxjad gracias amigo por los puntos  
Este post esta cerrado y no se permiten comentarios.
Para dejar un comentario Registrate! o.. eres ya usuario? Accede!