El Gigante de Hierro [1999]720p x265 10bits Latino

El Gigante de Hierro [1999]720p x265 10bits Latino | Signature Edition





Título original:    The Iron Giant
Año:    1999
Duración:    86 min.
País:    Estados Unidos Estados Unidos
Director:    Brad Bird
Guión:    Brad Bird, Tim McCanlies (Cuento: Ted Hughes)
Música:    Michael Kamen
Fotografía:    Steven Wilzbach
Reparto:    Animation
Productora:    Warner Bros. Pictures
Género:    Animación. Ciencia ficción. Infantil | Años 50. Amistad. Robots. Vida rural (Norteamérica). Guerra Fría

Sinopsis

    En 1957, en la pequeña localidad de Rockwell, alguien ha visto cómo un enorme hombre metálico caía al mar. Un imaginativo niño descubre que se trata de un robot gigante, cuyo apetito de metal es insaciable. Entre ambos nace una fuerte amistad, pero el gobierno envía a un agente para investigar los hechos. El niño esconde a su nuevo compañero en la chatarrería de un amigo. Pero los habitantes del pueblo comienzan a sentirse aterrados porque creen que es una nueva amenaza en plena Guerra Fría...








MEDIA INFO

General
El gigante de Hierro [1999]720p Brrip X265 [HEVC-10Bit]Latino.mkv
Format                         : Matroska
Format version                 : Version 4 / Version 2
File size                      : 624 MiB
Duration                       : 1 h 29 min

Overall bit rate               : 970 kb/s
Encoded date                   : UTC 2016-10-07 17:12:03
Writing application            : mkvmerge v8.3.0 ('Over the Horizon') 64bit
Writing library                : libebml v1.3.1 + libmatroska v1.4.2

Video
ID                             : 1
Format                         : HEVC
Format/Info                    : High Efficiency Video Coding

Format profile                 : Main [email protected]@Main
Codec ID                       : V_MPEGH/ISO/HEVC
Duration                       : 1 h 29 min
Bit rate                       : 776 kb/s
Width                          : 1 280 pixels
Height                         : 536 pixels

Display aspect ratio           : 2.40:1
Frame rate mode                : Constant
Frame rate                     : 23.976 (24000/1001) FPS
Color space                    : YUV
Chroma subsampling             : 4:2:0
Bit depth                      : 10 bits
Bits/(Pixel*Frame)             : 0.047
Stream size                    : 500 MiB (80%)
Default                        : Yes
Forced                         : Yes
Color range                    : Limited
Matrix coefficients            : BT.709

Audio
ID                             : 2
Format                         : AC-3
Format/Info                    : Audio Coding 3
Mode extension                 : CM (complete main)
Format settings, Endianness    : Big
Codec ID                       : A_AC3
Duration                       : 1 h 29 min
Bit rate mode                  : Constant
Bit rate                       : 192 kb/s
Channel(s)                     : 2 channels
Channel positions              : Front: L R
Sampling rate                  : 44.1 kHz
Frame rate                     : 28.711 FPS (1536 spf)
Compression mode               : Lossy
Stream size                    : 124 MiB (20%)
Language                       : Spanish
Default                        : Yes
Forced                         : No















El Gigante de Hierro [1999]720p x265 10bits Latino
100 Puntos Score: 10/10
Visitas: 1348 Favoritos: 9
Ver los usuarios que votaron...
16 Comentarios El Gigante de Hierro [1999]720p x265 10bits Latino
@mateomax Que la disfrutes amigo
Buen aporte  
@Berlin90 gracias amigo aki andaremos aportando
Thx @javicho270 por los puntos  
Excelente pelicula. Felicitaciones
UN CLASICO ,GRACIAS
Muchas Gracias Brother, Gran Aportazo,,  
Una de mis películas favoritas   De casualidad no tendrás la del Novato del Año? O ET?.
@Maximo1961 @Ngh_Sick @FelixTesla gracias amigos por comentar y por los puntos
@Sr.Satan si bro tengo las dos pronto estare subiendolas
Muchas gracias esas películas me traen grandes recuerdos.  
Descargando... luego de descargar doy puntos
Vi una parte una vez en la tele y me gustó. Me la llevo. Muchas gracias!
Se ve muy bien!
10 puntos!  
Para dejar un comentario Registrate! o.. eres ya usuario? Accede!