Oops.. Este post tiene los enlaces eliminados!

Identi revisa las denuncias de los usuarios en busca de enlaces eliminados que no dejan descargar los archivos, este mensaje te informa que este post que estas viendo tiene los enlaces eliminados.

Usa el Buscador

Por favor, te recomendamos que uses el buscador para encontrar más alternativas.

Escape A La Victoria [Rmvb][Latino][1981]

  • Categoría: Reciclaje
  • Publicado hace más de 5 años

Escape A La Victoria [Rmvb][Latino][1981]








Segunda Guerra Mundial, año 1943. Un oficial alemán visita el campo de concentración de Gensdorff. Un grupo de prisioneros se encuentra jugando al fútbol, y al oficial, que fue jugador antes de la guerra, se le ocurre organizar un encuentro entre una selección alemana y los prisioneros. Los aliados en un principio se niegan, pero comprenden que puede ser una ocasión única para evadirse... por lo que terminan por aceptar el reto.


Titulo: Escape A La Victoria
Titulo Original: Victory
Pais: EUA
Año: 1981
Director: John Huston.
Guión: Evan Jones, Yabo Yablonsky.
Productores: Annie Fargue, Freddie Fields, Mario Kassar, Gordon McLendon, Andrew G. Vajna.
Música: Bill Conti.
Fotografía: Gerry Fisher.
Edicion: Roberto Silvi.
Actores: Sylvester Stallone, Michael Caine, Max von Sydow, Pelé, Ardiles, Daniel Massey, Bobby Moore.
Género: Drama, Acción
Audio: Español Latino

General

Format : RealMedia
File size : 502 MiB
Duration : 1h 56mn
Overall bit rate : 591 Kbps

Video

ID : 1
Format : RealVideo 4
Codec ID : RV40
Codec ID/Info : Based on AVC (H.264), Real Player 9
Duration : 1h 56mn
Bit rate : 527 Kbps
Width : 640 pixels
Height : 272 pixels
Display aspect ratio : 2.35:1
Frame rate : 23.000 fps
Bits/(Pixel*Frame) : 0.132
Stream size : 439 MiB (88%)

Audio
ID : 0
Format : Cooker
Codec ID : cook
Codec ID/Info : Based on G.722.1, Real Player 6
Duration : 1h 56mn
Bit rate : 64.1 Kbps
Channel(s) : 2 channels
Sampling rate : 44.1 KHz
Bit depth : 16 bits
Stream size : 53.4 MiB (11%)













www.identi.li

Unir las partes con Hj-split
Uploader: renxo


Escape A La Victoria [Rmvb][Latino][1981]
10 Puntos Score: 5/10
Visitas: 2975 Favoritos: 0
Ver los usuarios que votaron...
Más del Autor...
No se encontraron más posts
1 Comentarios Escape A La Victoria [Rmvb][Latino][1981]
Gracias por la pelicula,la buscaba desde hace rato.
Para dejar un comentario Registrate! o.. eres ya usuario? Accede!