El Padrino III (1990) [doblaje original]

                


  Ficha
1080p | 1920x1080 | MKV | H.264 | AC3 5.1 | 2.8 GB  | 2:50:15 min | Audio: Español Latino - Ingles  | Subtitulos: Si | Drama | 1990 
 MediaInfo:
General
Format : Matroska
Format version : Version 4 / Version 2
File size : 2.79 GiB
Duration : 2h 50mn
Overall bit rate : 2 349 Kbps
Movie name : The Godfather 3 [1990][1080p Dual]
Encoded date : UTC 2013-06-05 17:10:29
Writing application : mkvmerge v6.1.0 ('Old Devil') built on Mar 2 2013 14:32:37
Writing library : libebml v1.3.0 + libmatroska v1.4.0
Video
ID : 1
Format : AVC
Format/Info : Advanced Video Codec
Format profile : [email protected]
Format settings, CABAC : Yes
Format settings, ReFrames : 3 frames
Codec ID : V_MPEG4/ISO/AVC
Duration : 2h 50mn
Bit rate : 1 838 Kbps
Width : 1 920 pixels
Height : 1 080 pixels
Display aspect ratio : 16:9
Frame rate mode : Constant
Frame rate : 23.976 fps
Color space : YUV
Chroma subsampling : 4:2:0
Bit depth : 8 bits
Scan type : Progressive
Bits/(Pixel*Frame) : 0.037
Stream size : 2.13 GiB (76%)
Writing library : x264 core 129 r2230 1cffe9f
Encoding settings : cabac=1 / ref=4 / deblock=1:0:0 / analyse=0x3:0x133 / me=umh / subme=9 / psy=1 / psy_rd=1.00:0.00 / mixed_ref=1 / me_range=16 / chroma_me=1 / trellis=2 / 8x8dct=1 / cqm=0 / deadzone=21,11 / fast_pskip=1 / chroma_qp_offset=-2 / threads=12 / lookahead_threads=2 / sliced_threads=0 / nr=0 / decimate=1 / interlaced=0 / bluray_compat=0 / constrained_intra=0 / bframes=3 / b_pyramid=1 / b_adapt=2 / b_bias=2 / direct=3 / weightb=1 / open_gop=0 / weightp=2 / keyint=240 / keyint_min=23 / scenecut=40 / intra_refresh=0 / rc_lookahead=60 / rc=2pass / mbtree=1 / bitrate=1838 / ratetol=1.0 / qcomp=0.60 / qpmin=0 / qpmax=69 / qpstep=4 / cplxblur=20.0 / qblur=0.5 / ip_ratio=1.40 / aq=1:1.00
Default : Yes
Forced : No
Audio #1
ID : 2
Format : AC-3
Format/Info : Audio Coding 3
Mode extension : CM (complete main)
Format settings, Endianness : Big
Codec ID : A_AC3
Duration : 2h 50mn
Bit rate mode : Constant
Bit rate : 320 Kbps
Channel(s) : 6 channels
Channel positions : Front: L C R, Side: L R, LFE
Sampling rate : 44.1 KHz
Bit depth : 16 bits
Compression mode : Lossy
Delay relative to video : 100ms
Stream size : 390 MiB (14%)
Title : Español Latino 
Default : Yes
Forced : No
Audio #2
ID : 3
Format : AC-3
Format/Info : Audio Coding 3
Mode extension : CM (complete main)
Format settings, Endianness : Big
Codec ID : A_AC3
Duration : 2h 50mn
Bit rate mode : Constant
Bit rate : 192 Kbps
Channel(s) : 6 channels
Channel positions : Front: L C R, Side: L R, LFE
Sampling rate : 44.1 KHz
Bit depth : 16 bits
Compression mode : Lossy
Stream size : 234 MiB (8%)
Default : No
Forced : No
Text #1
ID : 4
Format : UTF-8
Codec ID : S_TEXT/UTF8
Codec ID/Info : UTF-8 Plain Text
Title : Subtitulos Español
Default : No
Forced : No
Text #2
ID : 5
Format : UTF-8
Codec ID : S_TEXT/UTF8
Codec ID/Info : UTF-8 Plain Text
Default : Yes
Forced : No
 
Sinopsis
Michael Corleone, heredero del imperio de don Vito Corleone, intenta rehabilitarse socialmente y legitimar todas las posesiones de la familia negociando con el Vaticano. Después de luchar toda su vida se encuentra cansado y centra todas sus esperanzas en encontrar un sucesor que se haga cargo de los negocios. Vincent, el hijo ilegítimo de su hermano Sonny, parece ser el elegido.
Capturas

Password: Nostradamus
El Padrino III (1990) [doblaje original]
60 Puntos Score: 10/10
Visitas: 541 Favoritos: 1
Ver los usuarios que votaron...
12 Comentarios El Padrino III (1990) [doblaje original]
SI pudieras subirn Goodfellas y Casino. Digo, te irias al cielo de los uploaders....
@SHRLCKHLMS las tengo en 2y3 versiones bien encuentre el doblaje original la subo, gracias x comentar y el apoyo
Muchas gracias! me da error por megadownloader al querer bajar el DLC hecho desde el jdownloader . Alguna idea?
@Gasalcedo desde el jdownloader boton derecho, propiedades, mostrar enlaces, copiar y listo
Las 2 primeras fueron de lo mejor, esta pesima.
a mi tambien me dio error megadownloader, Pero volvi a abrir el DLC y jalo los enlaces, intentalo hasta que los detecte.
Cita Gasalcedo: Mostrar
No sabía que casino y goodfellas tubieran dos doblajes q yo las tengo en latino y creo q es el único doblaje que he escuchado, puedes pasarme los los links de la 2 por mp?
podrias subir los otros doblajes de goodfellas y los otros de casino por favor @adonis1322
@armsa bien los tenga los subo
@adonis1322 amigo tendras los hermanos caradura 1 y 2 en español latino     avisame
Para dejar un comentario Registrate! o.. eres ya usuario? Accede!