Oops.. Este post tiene los enlaces eliminados!

Identi revisa las denuncias de los usuarios en busca de enlaces eliminados que no dejan descargar los archivos, este mensaje te informa que este post que estas viendo tiene los enlaces eliminados.

Usa el Buscador

Por favor, te recomendamos que uses el buscador para encontrar más alternativas.

Siniestro [2012] 720p BRrip x264 latino Mega

  • Categoría: Reciclaje
  • Publicado hace más de 2 meses
Siniestro [2012] 720p BRrip x264 latino Mega





Título original:    Sinister
Año:    2012
Duración:    110 min.
País:    Estados Unidos Estados Unidos
Director:    Scott Derrickson
Guión:    Scott Derrickson, C. Robert Cargill
Música:    Christopher Young
Fotografía:    Chris Norr
Reparto:    Ethan Hawke, James Ransone, Juliet Rylance, Vincent D'Onofrio, Fred Dalton Thompson, Clare Foley, Michael Hall D'Addario, Victoria Leigh
Productora:    Automatik Entertainment / Blumhouse Productions / Possessed Pictures
Género:    Terror. Thriller | Asesinos en serie. Sobrenatural
Grupos:    Blumhouse Productions Novedad

Sinopsis

    Un periodista viaja con su familia a lo largo y ancho del país para investigar terribles asesinatos que luego convierte en libros. Cuando llega a una casa donde ha tenido lugar el asesinato de una familia, encuentra una cinta que desvela horribles pistas que van más allá del esclarecimiento de la tragedia.


MEDIA INFO


General
Sinister.2012.720p.BRrip.x264.mkv
Format                         : Matroska
Format version                 : Version 4 / Version 2
File size                      : 949 MiB
Duration                       : 1 h 49 min

Overall bit rate               : 1 209 kb/s
Encoded date                   : UTC 2015-07-03 17:04:53
Writing application            : mkvmerge v7.9.0 ('Birds') 64bit
Writing library                : libebml v1.3.1 + libmatroska v1.4.2

Video
ID                             : 1
Format                         : AVC
Format/Info                    : Advanced Video Codec
Format profile                 : [email protected]
Format settings, CABAC         : Yes
Format settings, ReFrames      : 12 frames
Codec ID                       : V_MPEG4/ISO/AVC
Duration                       : 1 h 49 min
Bit rate                       : 983 kb/s
Width                          : 1 280 pixels
Height                         : 536 pixels

Display aspect ratio           : 2.40:1
Frame rate mode                : Constant
Frame rate                     : 23.976 (24000/1001) FPS
Color space                    : YUV
Chroma subsampling             : 4:2:0
Bit depth                      : 8 bits
Scan type                      : Progressive
Bits/(Pixel*Frame)             : 0.060
Stream size                    : 771 MiB (81%)
Writing library                : x264 core 129 r2230 1cffe9f
Default                        : Yes
Forced                         : No

Audio #1
ID                             : 2
Format                         : MPEG Audio
Format version                 : Version 1
Format profile                 : Layer 3
Mode                           : Joint stereo
Mode extension                 : MS Stereo
Codec ID                       : A_MPEG/L3
Codec ID/Hint                  : MP3
Duration                       : 1 h 49 min
Bit rate mode                  : Constant
Bit rate                       : 128 kb/s
Channel(s)                     : 2 channels
Sampling rate                  : 44.1 kHz
Frame rate                     : 38.281 FPS (1152 spf)
Compression mode               : Lossy
Delay relative to video        : 26 ms
Stream size                    : 100 MiB (11%)
Language                       : Spanish
Default                        : Yes
Forced                         : No

Audio #2
ID                             : 3
Format                         : AAC
Format/Info                    : Advanced Audio Codec
Format profile                 : LC
Codec ID                       : A_AAC
Duration                       : 1 h 49 min
Bit rate                       : 96.0 kb/s
Channel(s)                     : 2 channels
Channel positions              : Front: L R
Sampling rate                  : 48.0 kHz
Frame rate                     : 46.875 FPS (1024 spf)
Compression mode               : Lossy
Stream size                    : 75.2 MiB (8%)
Language                       : English
Default                        : No
Forced                         : No
















Siniestro [2012] 720p BRrip x264 latino Mega
42 Puntos Score: 8.4/10
Visitas: 741 Favoritos: 3
Ver los usuarios que votaron...
4 Comentarios Siniestro [2012] 720p BRrip x264 latino Mega
@Wolfmaster3008 gracias amigo x comentar  
Gracias por comparti!! Saludos    
Este post esta cerrado y no se permiten comentarios.
Para dejar un comentario Registrate! o.. eres ya usuario? Accede!