The Flash S03E01 720p 10Bit HDTV x265 HEVC Mega

The Flash S03E01 720p 10Bit HDTV x265 HEVC Mega






Título original:    The Flash (TV Series)
Año:    2014
Duración:    46 min.
País:    Estados Unidos Estados Unidos
Director:    Dermott Downs, Glen Winter, David Nutter, Ralph Hemecker, Larry Shaw, Millicent Shelton, Jesse Warn, John F. Showalter, Rob Hardy, Steve Shill, John Behring, Kevin Smith
Guión:    Greg Berlanti, Geoff Johns, Andrew Kreisberg, Harry Lampert, Gardner Fox, Brooke Roberts, Grainne Godfree, Aaron Helbing, Kai Wu, Alison Schapker, Todd Helbing
Música:    Blake Neely
Fotografía:    Glen Winter, Jeffrey C. Mygatt, Stewart Whelan, C. Kim Miles
Reparto:    Grant Gustin, Rick Cosnett, Candice Patton, Tom Cavanagh, Michelle Harrison, Al Sapienza, Jesse L. Martin, Danielle Panabaker, Chad Rook, John Wesley Shipp, Wentworth Miller, Emily Bett Rickards, Malese Jow, Bre Blair, Anna Hopkins, Ciara Renée, Shantel VanSanten, Robbie Amell, Patrick Sabongui, Teddy Sears, Victor Garber, Morena Baccarin, Violett Beane, Peyton List, Vanessa Williams, Tom Felton
Productora:    Warner Bros. Television / Berlanti Productions / DC Entertainment
Género:    Serie de TV. Fantástico. Acción. Ciencia ficción | Superhéroes. Spin-off. Cómic. DC Comics
Grupos:    Arrowverse | Flash Novedad
Web oficial:    http://www.cwtv.com/shows/the-flash/

Sinopsis

    Serie de TV (2014-Actualidad). Sigue las veloces aventuras de Barry Allen, un joven común y corriente con el deseo latente de ayudar a los demás. Cuando una inesperada partícula aceleradora golpea por accidente a Barry, de pronto se encuentra cargado de un increíble poder para moverse a increíbles velocidades. Mientras Barry siempre ha tenido el alma de un héroe, sus nuevos poderes le han dado la capacidad de actuar como tal. Spin-off de "Arrow".



General
The Flash.2014.S03E01.720p.10Bit.HDTV.x265 HEVC.mkv
Format                         : Matroska
Format version                 : Version 4 / Version 2
File size                      : 165 MiB
Duration                       : 42 min

Overall bit rate               : 543 kb/s
Encoded date                   : UTC 2016-10-05 06:34:24
Writing application            : mkvmerge v8.9.0 ('Father Daughter') 64bit
Writing library                : libebml v1.3.3 + libmatroska v1.4.4

Video
ID                             : 1
Format                         : HEVC
Format/Info                    : High Efficiency Video Coding
Format profile                 : Main [email protected]@Main
Codec ID                       : V_MPEGH/ISO/HEVC
Duration                       : 42 min
Bit rate                       : 426 kb/s
Width                          : 1 290 pixels
Height                         : 720 pixels

Display aspect ratio           : 16:9
Frame rate mode                : Constant
Frame rate                     : 23.976 (24000/1001) FPS
Color space                    : YUV
Chroma subsampling             : 4:2:0
Bit depth                      : 10 bits
Bits/(Pixel*Frame)             : 0.019
Stream size                    : 129 MiB (78%)
Default                        : Yes
Forced                         : Yes
Color range                    : Limited
Matrix coefficients            : BT.709

Audio
ID                             : 2
Format                         : AAC
Format/Info                    : Advanced Audio Codec
Format profile                 : HE-AACv2 / HE-AAC / LC
Codec ID                       : A_AAC
Duration                       : 42 min
Bit rate                       : 115 kb/s
Channel(s)                     : 2 channels / 1 channel / 1 channel
Channel positions              : Front: L R / Front: C / Front: C
Sampling rate                  : 48.0 kHz / 48.0 kHz / 24.0 kHz
Frame rate                     : 23.438 FPS (1024 spf)
Compression mode               : Lossy
Delay relative to video        : 11 ms
Stream size                    : 35.0 MiB (21%)
Default                        : Yes
Forced                         : No




















The Flash S03E01 720p 10Bit HDTV x265 HEVC Mega
80 Puntos Score: 10/10
Visitas: 1295 Favoritos: 1
Ver los usuarios que votaron...
12 Comentarios The Flash S03E01 720p 10Bit HDTV x265 HEVC Mega
@AlonsoSant ahi deje el link   checale
Te la has ganado, compadre        +10  

P.D.: Falta un Icono Gestual con algunas Birras (Cervezas)  
Muchas gracias  
Muchas gracias  
Gracias por el gran aporte lo estaba esperando  
ya salioooo  
¡Muchas gracias por el aporte! La verdad es que la serie estuvo muy buena en sus dos primeras temporadas, pero el inicio de la 3era lo siento un poco flojo y repetitivo, dado que los principales antagonistas siempre son velocistas y es la tercera (o cuarta, creo) vez que nos presentan versiones ligeramente distintas de los mismos personajes. Pero habrá que ver como se ponde más adelante.
+10 MIL GRACIAS    
Para dejar un comentario Registrate! o.. eres ya usuario? Accede!