Cuando las luces se apagan[720p][webdl]Latino Mega

Cuando las luces se apagan[720p][webdl]Latino Mega





Título original:    Lights Out
Año:    2016
Duración:    81 min.
País:    Estados Unidos Estados Unidos
Director:    David F. Sandberg
Guión:    David F. Sandberg, Eric Heisserer
Música:    Benjamin Wallfisch
Fotografía:    Marc Spicer
Reparto:    Teresa Palmer, Maria Bello, Gabriel Bateman, Alexander DiPersia, Billy Burke, Alicia Vela-Bailey, Amiah Miller, Andi Osho, Maria Russell, Elizabeth Pan, Ava Cantrell, Rolando Boyce, Emily Alyn Lind, Lotta Losten
Productora:    Grey Matter Productions / New Line Cinema
Género:    Terror | Sobrenatural. Remake



SINOPSIS:
Cuando Rebecca se fue de casa, pensó que había dejado atrás sus miedos de la niñez. A medida que iba creciendo, nunca estaba realmente segura de lo que era real o no cuando se apagaban las luces... y ahora su hermano pequeño, Martin, atraviesa los mismos sucesos inexplicables y aterradores que una vez pusieron a prueba la cordura de Rebecca y amenazaron su seguridad. Un aterrador ente con una misteriosa predilección por su madre, Sophie, ha resurgido.
Pero en esta ocasión, y a medida que Rebecca se acerca a la indescifrable verdad, no cabe duda de que todas sus vidas están en peligro... cuando se apaga la luz.




MEDIA INFO


General
Lights.Out.2016.720p.WEB-DL(1).mkv

Format                         : Matroska
Format version                 : Version 4 / Version 2
File size                      : 862 MiB
Duration                       : 1 h 20 min
Overall bit rate               : 1 489 kb/s
Encoded date                   : UTC 2016-10-04 18:21:37
Writing application            : mkvmerge v8.3.0 ('Over the Horizon') 64bit
Writing library                : libebml v1.3.1 + libmatroska v1.4.2

Video
ID                             : 1
Format                         : AVC
Format/Info                    : Advanced Video Codec
Format profile                 : [email protected]
Format settings, CABAC         : Yes
Format settings, ReFrames      : 5 frames
Codec ID                       : V_MPEG4/ISO/AVC
Duration                       : 1 h 20 min
Bit rate                       : 1 232 kb/s
Width                          : 1 280 pixels
Height                         : 530 pixels
Display aspect ratio           : 2.40:1
Frame rate mode                : Constant
Frame rate                     : 23.976 (24000/1001) FPS
Color space                    : YUV
Chroma subsampling             : 4:2:0
Bit depth                      : 8 bits
Scan type                      : Progressive
Bits/(Pixel*Frame)             : 0.076
Stream size                    : 713 MiB (83%)
Writing library                : x264 core 133 r2334 a3ac64b
Default                        : Yes
Forced                         : No

Audio
ID                             : 2
Format                         : AC-3
Format/Info                    : Audio Coding 3
Mode extension                 : CM (complete main)
Format settings, Endianness    : Big
Codec ID                       : A_AC3
Duration                       : 1 h 20 min
Bit rate mode                  : Constant
Bit rate                       : 256 kb/s
Channel(s)                     : 2 channels
Channel positions              : Front: L R
Sampling rate                  : 48.0 kHz
Frame rate                     : 31.250 FPS (1536 spf)
Compression mode               : Lossy
Stream size                    : 148 MiB (17%)
Language                       : Spanish
Default                        : Yes
Forced                         : No



















Cuando las luces se apagan[720p][webdl]Latino Mega
50 Puntos Score: 10/10
Visitas: 1733 Favoritos: 2
Ver los usuarios que votaron...
13 Comentarios Cuando las luces se apagan[720p][webdl]Latino Mega
Gracias por el aporte  
gracias bro ,empezare a seguirte
Muchas Gracias Brooo, Se agradece mucho tu esfuerzo y gracias por compartir,,  
Daré puntos luego de ver la calidad
Muchas gracais
la calidad es la que aparece en la informacion amigo, pero adelante descarga @Pan19
Se ve muy bien y se ve prometedora jeje
Diez puntos!
no esta el link
Para dejar un comentario Registrate! o.. eres ya usuario? Accede!