Hunt for the Wilderpeople [2016] 720p X265 10 bit

Hunt for the Wilderpeople [2016] 720p X265 10 bit








Título original:    Hunt for the Wilderpeople
Año:    2016
Duración:    93 min.
País:    Nueva Zelanda Nueva Zelanda
Director:    Taika Waititi
Guión:    Barry Crump, Taika Waititi
Música:    Lukasz Pawel Buda, Samuel Scott, Conrad Wedde
Fotografía:    Lachlan Milne
Reparto:    Sam Neill, Julian Dennison, Rachel House, Rima Te Wiata, Oscar Kightley, Rhys Darby, Cohen Holloway, Mike Minogue, Stan Walker
Productora:    Piki Films / Defender Films / Curious Film
Género:    Comedia. Aventuras

Sinopsis

    Ricky es un rebelde chico de ciudad de doce años al que no encuentran hogar de acogida para él, salvo una granja en medio de la nada con una pareja; ella encantadora, él, arisco y solitario. Cuando comienza a sentirse a gusto, un problema imprevisto dará pie a una caza humana por el campo neozelandés.



Wilderpeople.2016.720p.BluRay.X265 hevc 10Bit (1).mkv

Format                         : Matroska
Format version                 : Version 4 / Version 2
File size                      : 515 MiB
Duration                       : 1 h 40 min

Overall bit rate               : 712 kb/s
Encoded date                   : UTC 2016-10-04 12:16:28
Writing application            : mkvmerge v8.3.0 ('Over the Horizon') 64bit
Writing library                : libebml v1.3.1 + libmatroska v1.4.2

Video
ID                             : 1
Format                         : HEVC
Format/Info                    : High Efficiency Video Coding
Format profile                 : Main [email protected]@Main
Codec ID                       : V_MPEGH/ISO/HEVC
Duration                       : 1 h 40 min
Bit rate                       : 614 kb/s
Width                          : 1 280 pixels
Height                         : 536 pixels

Display aspect ratio           : 2.40:1
Frame rate mode                : Constant
Frame rate                     : 24.000 FPS
Color space                    : YUV
Chroma subsampling             : 4:2:0
Bit depth                      : 10 bits
Bits/(Pixel*Frame)             : 0.037
Stream size                    : 444 MiB (86%)
Writing library                : x265 1.8+188-:[Windows][GCC 5.2.0][64 bit] 10bit
Default                        : Yes
Forced                         : Yes
Color range                    : Limited
Matrix coefficients            : BT.709

Audio
ID                             : 2
Format                         : MPEG Audio
Format version                 : Version 1
Format profile                 : Layer 3
Mode                           : Joint stereo
Mode extension                 : MS Stereo
Codec ID                       : A_MPEG/L3
Codec ID/Hint                  : MP3
Duration                       : 1 h 40 min
Bit rate mode                  : Constant
Bit rate                       : 96.0 kb/s
Channel(s)                     : 2 channels
Sampling rate                  : 48.0 kHz
Frame rate                     : 41.667 FPS (1152 spf)
Compression mode               : Lossy
Stream size                    : 69.3 MiB (13%)
Writing library                : LAME3.99.5
Language                       : English
Default                        : Yes
Forced                         : No

Text
ID                             : 3
Format                         : UTF-8
Codec ID                       : S_TEXT/UTF8
Codec ID/Info                  : UTF-8 Plain Text
Duration                       : 1 h 34 min
Bit rate                       : 60 b/s
Count of elements              : 1193
Stream size                    : 41.8 KiB (0%)
Language                       : Spanish
Default                        : Yes
Forced                         : No




















Hunt for the Wilderpeople [2016] 720p X265 10 bit
20 Puntos Score: 10/10
Visitas: 1866 Favoritos: 1
Ver los usuarios que votaron...
9 Comentarios Hunt for the Wilderpeople [2016] 720p X265 10 bit
hevc no se puede pasar a dvd
viendo que tal se agradece
Bajando . Muchas gracias..
Vamos a ver... se ve interesante. Gracias!
se ve entretenida, gracias por tus aportes son interesantes
@duqueblanc Amigo, yo utilizo el mkvmerge para limpiar publicidad y otras opciones y luego lo paso a x264 con el handbrake, programa sencillo y gratis para convertirlo y luego el xconvert para pasarlo a DVD. Al final, el Nero y voilá listo para ver la peli con unos ricos mates. Espero te sirva.
no he podidio descargar la parte uno se esta reiniciando a cada memento y empieza desde cero
Muchas gracias tiene buena calificacion  
Para dejar un comentario Registrate! o.. eres ya usuario? Accede!