El Padrino II (1974) [Doblaje Original]

Lo prometido es deuda.
                                                                



Ficha
1080p | 1920x1080 | MKV | H.264 | AC3 5.1 | 3.2 GB  | 3:22:6 min | Audio: Español Latino - Ingles  | Subtitulos: Si | Drama | 1974
MediaInfo:
General
Format : Matroska
Format version : Version 4 / Version 2
File size : 3.26 GiB
Duration : 3h 22mn
Overall bit rate : 2 307 Kbps
Movie name : The Godfather 2 [1974][1080p Dual]
Writing application : mkvmerge v6.1.0 ('Old Devil') built on Mar 2 2013 14:32:37
Writing library : libebml v1.3.0 + libmatroska v1.4.0

Video
ID : 1
Format : AVC
Format/Info : Advanced Video Codec
Format profile : [email protected]
Format settings, CABAC : Yes
Format settings, ReFrames : 4 frames
Codec ID : V_MPEG4/ISO/AVC
Duration : 3h 22mn
Bit rate : 1 820 Kbps
Width : 1 920 pixels
Height : 1 080 pixels
Display aspect ratio : 16:9
Frame rate mode : Constant
Frame rate : 23.976 fps
Color space : YUV
Chroma subsampling : 4:2:0
Bit depth : 8 bits
Scan type : Progressive
Bits/(Pixel*Frame) : 0.037
Stream size : 2.47 GiB (76%)
Writing library : x264 core 129 r2230 1cffe9f
Encoding settings : cabac=1 / ref=4 / deblock=1:0:0 / analyse=0x3:0x113 / me=umh / subme=8 / psy=1 / psy_rd=1.00:0.00 / mixed_ref=1 / me_range=16 / chroma_me=1 / trellis=1 / 8x8dct=1 / cqm=0 / deadzone=21,11 / fast_pskip=1 / chroma_qp_offset=-2 / threads=12 / lookahead_threads=2 / sliced_threads=0 / nr=0 / decimate=1 / interlaced=0 / bluray_compat=0 / constrained_intra=0 / bframes=3 / b_pyramid=2 / b_adapt=2 / b_bias=0 / direct=3 / weightb=1 / open_gop=0 / weightp=2 / keyint=240 / keyint_min=23 / scenecut=40 / intra_refresh=0 / rc_lookahead=50 / rc=2pass / mbtree=1 / bitrate=1820 / ratetol=1.0 / qcomp=0.60 / qpmin=10 / qpmax=51 / qpstep=4 / cplxblur=20.0 / qblur=0.5 / ip_ratio=1.40 / aq=1:1.00
Default : Yes
Forced : No

Audio #1
ID : 2
Format : AC-3
Format/Info : Audio Coding 3
Mode extension : CM (complete main)
Format settings, Endianness : Big
Codec ID : A_AC3
Duration : 3h 22mn
Bit rate mode : Constant
Bit rate : 320 Kbps
Channel(s) : 6 channels
Channel positions : Front: L C R, Side: L R, LFE
Sampling rate : 44.1 KHz
Bit depth : 16 bits
Compression mode : Lossy
Stream size : 463 MiB (14%)
Default : Yes
Forced : No

Audio #2
ID : 3
Format : AC-3
Format/Info : Audio Coding 3
Mode extension : CM (complete main)
Format settings, Endianness : Big
Codec ID : A_AC3
Duration : 3h 22mn
Bit rate mode : Constant
Bit rate : 192 Kbps
Channel(s) : 6 channels
Channel positions : Front: L C R, Side: L R, LFE
Sampling rate : 44.1 KHz
Bit depth : 16 bits
Compression mode : Lossy
Stream size : 278 MiB (8%)
Default : No
Forced : No

Text #1
ID : 4
Format : UTF-8
Codec ID : S_TEXT/UTF8
Codec ID/Info : UTF-8 Plain Text
Title : Subtitulos Español
Default : No
Forced : No

Text #2
ID : 5
Format : UTF-8
Codec ID : S_TEXT/UTF8
Codec ID/Info : UTF-8 Plain Text
Default : Yes
Forced : No

[/spoiler][/font][/size][/color]
Sinopsis
Continuación de la saga de los Corleone con dos historias paralelas: la elección de Michael Corleone como jefe de los negocios familiares y los orígenes del patriarca, el ya fallecido Don Vito, primero en Sicilia y luego en Estados Unidos, donde, empezando desde abajo, llegó a ser un poderosísimo jefe de la mafia de Nueva York

                    
Capturas recien salidas del horno









Password: Nostradamus

                                      


PROXIMAMENTE


El Padrino II (1974) [Doblaje Original]
65 Puntos Score: 9.3/10
Visitas: 768 Favoritos: 2
Ver los usuarios que votaron...
20 Comentarios El Padrino II (1974) [Doblaje Original]
hola amigo
buenos tus aportes...luego te dejo puntos...se me acabaron
tendras la serie the fantasy island completa...
agradezco tu respuesta....es que me parece buenisima...saludos
@dracon1234 hola, no lo tengo pero veo si la consigo.. gracias x pasar
eres un capo compartiendo me falta terminar el anterior para  descargar este... tendras los 7 magnificos 2016 de denzel washington le agradecería si lo compartiera
Yo baje una version pesada con torrent y le agregue el audio doblaje original de unos dvds
@coveni @trooper67 Todavia no la tengo pero veo que consigo en buena calidad. gracias x pasar y comentar
Gracias a esperar la III, y a ver siu puedes subir una buena version de goodfellas...
Magnifico aporte!!
gracias por compartir!
no te olvides de agregar la pass Nostradamus en el post.
gracias,magnificos aportes
@Copo66 se me paso gracias x comentar y la visita
muchas gracias por subir el doblaje original de la 1 y la 2 en 5.1, los cuales ya tenia pero en 2.0
Cita armsa: Mostrar
Gracias a vos x pasar y comentar
@adonis1322 exelente amigo muchas gracias. una duda Goodfellas (1990) es el Doblaje Original?
Muchas gracias por subir el Padrino II también, pero no es el doblaje original de Goodfellas
@Zoidbergs1 @SAM591 voy a checar... es posible que me haya equivocado de version porque tengo 3 con distintos doblajes pero no se hagan problema que estoy mas que seguro que en algun disco lo tengo, bien la encuentre la subo
@adonis1322 aqui una pagina para que sepas cual es el doblaje original, lamentablemente no tengo ningun video de muestra, en el doblaje original el que dobla a robert de niro es el mismo que en el padrino 1 y 2 dobla a robert duvall mientras que en el redoblaje el que lo dobla es la voz que le ponen ahora
link:http://es.doblaje.wikia.com/wiki/Buenos_muchachos
@armsa ok gracias, voy a checar
no me deja descargar
Para dejar un comentario Registrate! o.. eres ya usuario? Accede!