Brannigan-John Wayne (1975)

/" />


Otra gran pelicula de este magnifico actor,en idioma original con los subtitulos en el rar.


" />
Detalles del video:


Format                         : MPEG-4
Format profile                 : Base Media
Codec ID                       : isom
File size                      : 814 MiB
Duration                       : 1h 51mn
Overall bit rate mode          : Variable
Overall bit rate               : 1 022 Kbps
Encoded date                   : UTC 2015-03-28 06:01:11
Tagged date                    : UTC 2015-03-28 06:01:11

Video
ID                             : 1
Format                         : AVC
Format/Info                    : Advanced Video Codec
Format profile                 : [email protected]
Format settings, CABAC         : Yes
Format settings, ReFrames      : 4 frames
Codec ID                       : avc1
Codec ID/Info                  : Advanced Video Coding
Duration                       : 1h 51mn
Bit rate                       : 923 Kbps
Maximum bit rate               : 4 984 Kbps
Width                          : 1 280 pixels
Height                         : 544 pixels
Display aspect ratio           : 2.35:1
Frame rate mode                : Constant
Frame rate                     : 23.976 fps
Color space                    : YUV
Chroma subsampling             : 4:2:0
Bit depth                      : 8 bits
Scan type                      : Progressive
Bits/(Pixel*Frame)             : 0.055
Stream size                    : 735 MiB (90%)
Writing library                : x264 core 123 r2189 35cf912
Encoding settings              : cabac=1 / ref=4 / deblock=1:-1:-1 / analyse=0x3:0x133 / me=umh / subme=9 / psy=1 / psy_rd=1.00:0.15 / mixed_ref=1 / me_range=24 / chroma_me=1 / trellis=2 / 8x8dct=1 / cqm=0 / deadzone=21,11 / fast_pskip=0 / chroma_qp_offset=-3 / threads=48 / sliced_threads=0 / nr=0 / decimate=1 / interlaced=0 / bluray_compat=0 / constrained_intra=0 / bframes=3 / b_pyramid=2 / b_adapt=2 / b_bias=0 / direct=3 / weightb=1 / open_gop=0 / weightp=2 / keyint=250 / keyint_min=23 / scenecut=40 / intra_refresh=0 / rc_lookahead=60 / rc=2pass / mbtree=1 / bitrate=923 / ratetol=1.0 / qcomp=0.60 / qpmin=0 / qpmax=69 / qpstep=4 / cplxblur=20.0 / qblur=0.5 / vbv_maxrate=31250 / vbv_bufsize=31250 / nal_hrd=none / ip_ratio=1.40 / aq=1:1.00
Encoded date                   : UTC 2015-03-28 06:01:11
Tagged date                    : UTC 2015-03-28 06:01:22
Color primaries                : BT.709
Matrix coefficients            : BT.709
Color range                    : Limited

Audio
ID                             : 2
Format                         : AAC
Format/Info                    : Advanced Audio Codec
Format profile                 : LC
Codec ID                       : 40
Duration                       : 1h 51mn
Bit rate mode                  : Variable
Bit rate                       : 96.0 Kbps
Maximum bit rate               : 102 Kbps
Channel(s)                     : 1 channel
Channel positions              : Front: C
Sampling rate                  : 48.0 KHz
Compression mode               : Lossy
Stream size                    : 75.3 MiB (9%)
Language                       : English
Encoded date                   : UTC 2015-03-28 06:01:20
Tagged date                    : UTC 2015-03-28 06:01:22
Brannigan-John Wayne (1975)







Brannigan-John Wayne (1975)
30 Puntos Score: 10/10
Visitas: 595 Favoritos: 1
Ver los usuarios que votaron...
3 Comentarios Brannigan-John Wayne (1975)
muchas gracias  
Para dejar un comentario Registrate! o.. eres ya usuario? Accede!