El Padrino (1972) 1080p Dual [Doblaje Original]

El Padrino (1972) 1080p Dual [Doblaje Original]

                                 
   
                         
                                                                 
                                                         
                                                                          

                                                                     
1080p | 1920x1080 | MKV | H.264 | AC3 5.1 | 2.9 GB  | 2:57:9 min | Audio: Español Latino - Ingles  | Subtitulos: Si | Drama | 1972 |

MediaInfo:

General
Format : Matroska
Format version : Version 4 / Version 2
File size : 2.91 GiB
Duration : 2h 57mn
Overall bit rate : 2 351 Kbps
Movie name : The Godfather 1 [1972][1080p Dual]
Encoded date : UTC 2013-06-05 16:07:14
Writing application : mkvmerge v6.1.0 ('Old Devil') built on Mar 2 2013 14:32:37
Writing library : libebml v1.3.0 + libmatroska v1.4.0

Video
ID : 1
Format : AVC
Format/Info : Advanced Video Codec
Format profile : [email protected]
Format settings, CABAC : Yes
Format settings, ReFrames : 3 frames
Codec ID : V_MPEG4/ISO/AVC
Duration : 2h 57mn
Bit rate : 1 843 Kbps
Width : 1 920 pixels
Height : 1 080 pixels
Display aspect ratio : 16:9
Frame rate mode : Constant
Frame rate : 23.976 fps
Color space : YUV
Chroma subsampling : 4:2:0
Bit depth : 8 bits
Scan type : Progressive
Bits/(Pixel*Frame) : 0.037
Stream size : 2.22 GiB (76%)
Writing library : x264 core 129 r2230 1cffe9f
Encoding settings : cabac=1 / ref=4 / deblock=1:0:0 / analyse=0x3:0x133 / me=umh / subme=9 / psy=1 / psy_rd=1.00:0.00 / mixed_ref=1 / me_range=16 / chroma_me=1 / trellis=2 / 8x8dct=1 / cqm=0 / deadzone=21,11 / fast_pskip=1 / chroma_qp_offset=-2 / threads=12 / lookahead_threads=2 / sliced_threads=0 / nr=0 / decimate=1 / interlaced=0 / bluray_compat=0 / constrained_intra=0 / bframes=3 / b_pyramid=1 / b_adapt=2 / b_bias=2 / direct=3 / weightb=1 / open_gop=0 / weightp=2 / keyint=240 / keyint_min=23 / scenecut=40 / intra_refresh=0 / rc_lookahead=60 / rc=2pass / mbtree=1 / bitrate=1843 / ratetol=1.0 / qcomp=0.60 / qpmin=0 / qpmax=69 / qpstep=4 / cplxblur=20.0 / qblur=0.5 / ip_ratio=1.40 / aq=1:1.00
Default : Yes
Forced : No

Audio #1
ID : 2
Format : AC-3
Format/Info : Audio Coding 3
Mode extension : CM (complete main)
Format settings, Endianness : Big
Codec ID : A_AC3
Duration : 2h 57mn
Bit rate mode : Constant
Bit rate : 320 Kbps
Channel(s) : 6 channels
Channel positions : Front: L C R, Side: L R, LFE
Sampling rate : 44.1 KHz
Bit depth : 16 bits
Compression mode : Lossy
Delay relative to video : 20ms
Stream size : 405 MiB (14%)
Title : Español Latino
Default : Yes
Forced : No

Audio #2
ID : 3
Format : AC-3
Format/Info : Audio Coding 3
Mode extension : CM (complete main)
Format settings, Endianness : Big
Codec ID : A_AC3
Duration : 2h 57mn
Bit rate mode : Constant
Bit rate : 192 Kbps
Channel(s) : 6 channels
Channel positions : Front: L C R, Side: L R, LFE
Sampling rate : 44.1 KHz
Bit depth : 16 bits
Compression mode : Lossy
Stream size : 243 MiB (8%)
Title : Ingles
Default : No
Forced : No

Text #1
ID : 4
Format : UTF-8
Codec ID : S_TEXT/UTF8
Codec ID/Info : UTF-8 Plain Text
Title : Subtitulos Español
Default : No
Forced : No

Text #2
ID : 5
Format : UTF-8
Codec ID : S_TEXT/UTF8
Codec ID/Info : UTF-8 Plain Text
Default : Yes
Forced : No

Sinopsis

Años 40. Don Vito Corleone (Marlon Brando) es el respetado y temido jefe de una de las cinco familias de la mafia de Nueva York. Tiene cuatro hijos: una chica, Connie (Talia Shire), y tres varones: el impulsivo Sonny (James Caan), el pusilánime Freddie (John Cazale) y Michael (Al Pacino), que no quiere saber nada de los negocios de su padre. Cuando Corleone, siempre aconsejado por su consejero Tom Hagen (Robert Duvall), se niega a intervenir en el negocio de las drogas, el jefe de otra banda ordena su asesinato. Empieza entonces una violenta y cruenta guerra entre las familias mafiosas.     


Password: Nostradamus


 


PROXIMAMENTE
El Padrino (1972) 1080p Dual [Doblaje Original]
190 Puntos Score: 10/10
Visitas: 1275 Favoritos: 9
Ver los usuarios que votaron...
43 Comentarios El Padrino (1972) 1080p Dual [Doblaje Original]
Muchas gracias por el aporte y que lujo con doblaje original mucho mejor. De casualidad tendrás el audio Latino original de Goodfellas 1990 o de  Taxi Driver 1976?
@adonis1322 muchas gracias por el aporte doblaje original exelente.
@Draghon @Zoidbergs1 gracias a ustedes por el apoyo.. creo que lo tengo, lo busco y te aviso
@adonis1322 me avisas a mí también  
@Gnzx001 ok te aviso y gracias por la visita
excelente amigo gracias por el aporte  
osea que los doblajes que viene en los dvds no lo son?
Crees q me puedas pasar los links de la 2 por mp? La 1 y la 3 ya las tengo con doblaje original y vaya q el nuevo doblaje es una verdadera porquería y una verdadera ofensa al buen doblaje xq para mi gusto el original es más que exelente
gracias,hasta tengo mis camisetas de las peliculas y los actores que representan al padrino son mis idolos,ahi te sigo
Muchas gracias.  
@chitio2010 todavia no la subi a mega
buen aporte, voy a descargarlo
bien van puntos, perdi estas peliculas en un disco duro que se descompuso. pondre puntos por cada pelicula
Muy bien amigo sigue asi gracias por compartir esperando la otra peli saludos
amigo tendras los doblajes latino originales de la saga de halloween  
@junior0010 los tengo.. pero vas a tener que tener paciencia
tranquilo no te preocupes tienes buenos temas amigo  
Muchas Gracias amigo... esperando la siguiente
De perlas bro...
 
gracias... aunque 2.9 gb parece algo chico para ser 1080p.. tal vez tiene recortes de frames... igual el doblaje original es un lujo...
@Draghon @Gnzx001 En el post del padrinoII esta el audio de Goodfellas 1990.. despues subo Taxi Driver
me salio corrupto el link 5 voy a volver a descargar o esta mal?
Muchas gracias amigo @adonis1322 te lo agradezco mucho, eres muy amable, GRACIAS !!!
estupendo aporte  
@Taykun7000 gracias x comentar y el apoyo  
Hola tengo el jdownloader 2... cargo los links, luego creo el dlc y los pongo en megadownloader.. pero los links no me cargan...
  Me marca ERROR (en el jdownloader me marca badwich limited)
  Alguna idea de como solucionarlo???
@gruposeele desde el jdownloader boton derecho, propiedades, mostrar enlaces, copiar y listo
Cita adonis1322: Mostrar
gracias!!
amigo me puedes pasar halloween 1 y 2 doblaje latino original por mensaje privado tedejo el de los hermanos caradura 2000 extraido del bluray bd50  
me pasarias el dlc por mp? no me logra agregar al jd2. gracoas
Hola, quisiera saber si aún los enlaces sirven, ya que ni Mipony ni JD los detecta. ¡Saludos!
Para dejar un comentario Registrate! o.. eres ya usuario? Accede!