Oops.. Este post tiene los enlaces eliminados!

Identi revisa las denuncias de los usuarios en busca de enlaces eliminados que no dejan descargar los archivos, este mensaje te informa que este post que estas viendo tiene los enlaces eliminados.

Usa el Buscador

Por favor, te recomendamos que uses el buscador para encontrar más alternativas.

Jeepers Creepers [2001] 720p Ligero Latino MEGA

  • Categoría: Reciclaje
  • Publicado hace más de 2 meses
Jeepers Creepers 2001 720p Ligero Latino mega









Título original:    Jeepers Creepers
Año:    2001
Duración:    90 min.
País:    Estados Unidos Estados Unidos
Director:    Victor Salva
Guión:    Victor Salva
Música:    Bennett Salvay
Fotografía:    Don E. Fauntleroy
Reparto:    Gina Philips, Justin Long, Jonathan Breck, Patricia Belcher, Eileen Brennan, Brandon Smith, Peggy Sheffield, Jeffrey William Evans, Patrick Cherry, Jon Beshara, Avis-Marie Barnes, Steve Raulerson, Tom Tarantini, William Haze
Productora:    Cinerenta-Cinebeta / American Zoetrope / Cinerenta Medienbeteiligungs KB
Género:    Terror | Monstruos. Road Movie. Cine independiente USA
Grupos:    Jeepers Creepers Novedad

Sinopsis

    Trish Jenner (Gina Philips) y su hermano menor Derry (Justin Long) cruzan los Estados Unidos en coche, en un viaje largo y aburrido cuya monotonía sólo se rompe por sus continuas discusiones. De pronto, en mitad de ninguna parte, descubren una iglesia abandonada cuyo tejado está cubierto por una espesa bandada de cuervos y ven como un misterioso personaje arroja un bulto al interior de una gran boca del alcantarillado. A partir de ese momento comienzan una huída aterradora, perseguidos por una de las criaturas más letales que se pueda imaginar.



MEDIA INFO

General

Jeepers.Creepers.2001.720p.Ligero.Latino.mkv

Format                         : Matroska
Format version                 : Version 2
File size                      : 627 MiB
Duration                       : 1 h 30 min

Overall bit rate mode          : Variable
Overall bit rate               : 967 kb/s
Encoded date                   : UTC 2013-02-08 02:00:33
Writing application            : mkvmerge v5.1.0 ('And so it goes') built on Nov 28 2011 23:58:28
Writing library                : libebml v1.2.3 + libmatroska v1.3.0

Video
ID                             : 1
Format                         : AVC
Format/Info                    : Advanced Video Codec
Format profile                 : [email protected]
Format settings, CABAC         : Yes
Format settings, ReFrames      : 8 frames
Muxing mode                    : Header stripping
Codec ID                       : V_MPEG4/ISO/AVC
Duration                       : 1 h 30 min
Bit rate                       : 852 kb/s
Width                          : 1 280 pixels
Height                         : 688 pixels
Display aspect ratio           : 1.85:1
Frame rate mode                : Constant
Frame rate                     : 23.976 (24000/1001) FPS
Color space                    : YUV
Chroma subsampling             : 4:2:0
Bit depth                      : 8 bits
Scan type                      : Progressive
Bits/(Pixel*Frame)             : 0.040
Stream size                    : 541 MiB (86%)
Writing library                : x264 core 125 r2200 999b753
Forced                         : No

Audio
ID                             : 2
Format                         : MPEG Audio
Format version                 : Version 1
Format profile                 : Layer 3
Mode                           : Joint stereo
Mode extension                 : MS Stereo
Muxing mode                    : Header stripping
Codec ID                       : A_MPEG/L3
Codec ID/Hint                  : MP3
Duration                       : 1 h 30 min
Bit rate mode                  : Variable
Bit rate                       : 114 kb/s
Nominal bit rate               : 128 kb/s
Channel(s)                     : 2 channels
Sampling rate                  : 48.0 kHz
Compression mode               : Lossy
Stream size                    : 74.1 MiB (12%)
Writing library                : LAME3.97
Encoding settings              : -m j -V 4 -q 2 -lowpass 17 --abr 128
Default                        : No
Forced                         : No



















Jeepers Creepers [2001] 720p Ligero Latino MEGA
26 Puntos Score: 6.5/10
Visitas: 684 Favoritos: 2
Ver los usuarios que votaron...
11 Comentarios Jeepers Creepers [2001] 720p Ligero Latino MEGA
Gracias   vas a subir la segunda en ese formato?  
mejor la primera
@shaka33 asi es amigo es la mejor la segunda no la tengo pero la bajo y la posteo @Nioda
@luis_f muy bien estare atento a ese aporte gracias  
Tengo los audios nada mas la queria en este peso... ya tengo a full los 2 discos. Gracias amigo
Muchas gracias
La primera empezó sus momentos de encuentro con los muertos con actitudes estúpidas del mecánico de herbie, todas fuera de lógica pero bueno es cuestión de gustos, me gustó mas la segunda aunque igual los jóvenes del bus eran unos trogloditas.
@Nioda ya subi la segunda amigo buscala en mi perfil
excelente tendras la tercera ??
Este post esta cerrado y no se permiten comentarios.
Para dejar un comentario Registrate! o.. eres ya usuario? Accede!