Oops.. Este post tiene los enlaces eliminados!

Identi revisa las denuncias de los usuarios en busca de enlaces eliminados que no dejan descargar los archivos, este mensaje te informa que este post que estas viendo tiene los enlaces eliminados.

Usa el Buscador

Por favor, te recomendamos que uses el buscador para encontrar más alternativas.

La Era de hielo:Choque de Mundos 720p Latino MEGA

  • Categoría: Reciclaje
  • Publicado hace más de 4 meses
La Era de hielo: Choque de Mundos 720p Brrip x264 Latino MEGA










Título original:    Ice Age: Collision Course (Ice Age 5)aka
Año:    2016
Duración:    94 min.
País:    Estados Unidos Estados Unidos
Director:    Mike Thurmeier, Galen T. Chu
Guión:    Michael Berg, Aubrey Solomon, Michael J. Wilson
Música:    John Debney
Fotografía:    Renato Falcão
Reparto:    Animation
Productora:    20th Century Fox / Blue Sky Studios
Género:    Animación. Aventuras. Comedia | Prehistoria. Secuela. 3-D
Grupos:    Ice Age (La Edad de Hielo) | Blue Sky Studios Novedad

Sinopsis

    La obsesiva búsqueda de bellotas por parte de Scrat acaba provocando un accidente: que un asteroide se dirija a a la Tierra, amenazando con acabar con la Edad de Hielo. Sid, Manny, Diego y los demás miembros de la manada intentarán impedirlo por todos los medios.


MEDIA INFO

General
Ice.Age.Collision.Course.2016.720p.BluRay.x264.mkv
Format                         : Matroska
Format version                 : Version 4 / Version 2
File size                      : 739 MiB
Duration                       : 1 h 34 min

Overall bit rate               : 1 093 kb/s
Movie name                     : Identi @Luis_f
Encoded date                   : UTC 2016-10-01 13:54:42
Writing application            : mkvmerge v8.3.0 ('Over the Horizon') 64bit
Writing library                : libebml v1.3.1 + libmatroska v1.4.2

Video
ID                             : 1
Format                         : AVC
Format/Info                    : Advanced Video Codec
Format profile                 : [email protected]
Format settings, CABAC         : Yes
Format settings, ReFrames      : 4 frames
Codec ID                       : V_MPEG4/ISO/AVC
Duration                       : 1 h 34 min
Bit rate                       : 900 kb/s
Width                          : 1 280 pixels
Height                         : 534 pixels

Display aspect ratio           : 2.40:1
Original display aspect ratio  : 2.40:1
Frame rate mode                : Constant
Frame rate                     : 23.976 FPS
Color space                    : YUV
Chroma subsampling             : 4:2:0
Bit depth                      : 8 bits
Scan type                      : Progressive
Bits/(Pixel*Frame)             : 0.055
Stream size                    : 608 MiB (82%)
Writing library                : x264 core 148
Forced                         : No

Audio
ID                             : 2
Format                         : AC-3
Format/Info                    : Audio Coding 3
Format profile                 : Dolby Digital
Mode extension                 : CM (complete main)
Format settings, Endianness    : Big
Codec ID                       : A_AC3
Duration                       : 1 h 34 min
Bit rate mode                  : Constant
Bit rate                       : 192 kb/s
Channel(s)                     : 2 channels
Channel positions              : Front: L R

Sampling rate                  : 48.0 kHz
Frame rate                     : 31.250 FPS (1536 spf)
Compression mode               : Lossy
Delay relative to video        : 1 s 0 ms
Stream size                    : 130 MiB (18%)
Language                       : Spanish

Default                        : Yes
Forced                         : No
















La Era de hielo:Choque de Mundos 720p Latino MEGA
79 Puntos Score: 8.8/10
Visitas: 2597 Favoritos: 6
Ver los usuarios que votaron...
13 Comentarios La Era de hielo:Choque de Mundos 720p Latino MEGA
yo me descarge una hace rato tenia el mismo titulo pero eran cortes de los videos de la ardillita loca esa y comentarios de los creadores, esta es la misma  
@RIDDECK  amigo es la pelicula completa descarga con confianza, por eso estan las capturas de lo que vas a descargar checatelas
Buen aporte, disculpa es Brrip ¿? el audio es español latino
audio final y si es brrip 720p con confianza
Excelente muchas gracias  
excelente, descargando gracias por tu aporte
Muchas gracias descargando!  
muchas gracias bro sigue asi  
muchas gracias
hola ! oye no me deja ver los links, le doy click dejo que se abra la publicidad y nada que puedo hacer !
pide contraseña
Este post esta cerrado y no se permiten comentarios.
Para dejar un comentario Registrate! o.. eres ya usuario? Accede!