Oops.. Este post tiene los enlaces eliminados!

Identi revisa las denuncias de los usuarios en busca de enlaces eliminados que no dejan descargar los archivos, este mensaje te informa que este post que estas viendo tiene los enlaces eliminados.

Usa el Buscador

Por favor, te recomendamos que uses el buscador para encontrar más alternativas.

Gotham S03E02 720p HDTV X265 HEVC 10Bit MEGA

  • Categoría: Reciclaje
  • Publicado hace más de 2 meses
Gotham S03E02 720p HDTV X265 HEVC 10Bit MEGA










Sinopsis

La historia de orígenes continúa con la tercera temporada de GOTHAM, y las apuestas están más altas que nunca, ya que Supervillanos más ambiciosos y depravados son introducidos y una nueva formación de alianzas sacude la lucha de poder por la ciudad.

La tercera temporada desvelará lo que hay tras la cortina de la infame organización criminal conocida como la Corte de los Búhos. Con los fugados de de Indian Hill a la huida, James Gordon (Ben McKenzie) debe tomar cartas en el asunto y convertirse en un cazarrecompensas en Gotham. Él convierte en su misión encontrar a Hugo Strange (estrella invitada Bd Wong), la mente maestra tras los horribles experimentos de Indian Hill, y Fish Mooney (estrella invitada Jada Pinkett Smith), uno de los especímenes de Strange. Mientras tanto, el Detective del DPGC Harvey Bullock (Donal Logue) y el Capitá Nathaniel Barnes (Michael Chiklis) permanecen al frente de la batalla contra el crimen en una ciudad controlada por los monstruos. Además, Bruce Wayne (David Mazouz), con la ayuda de su fiel mayordomo y mentor, Alfred Pennyworth (Sean Pertwee), y el ex-empleado de Wayne Enterprises, Lucius Fox (Chris Chalk), descubre que todavía quedan más secretos por desvelar sobre la muerte de sus padres.



Gotham.S03E02.720p.HDTV.X265 HEVC (10Bit).mp4
Format                         : hvc1
Codec ID                       : hvc1 (iso4/hvc1)
File size                      : 327 MiB
Duration                       : 43 min
Overall bit rate               : 1 046 kb/s
Encoded date                   : UTC 2016-09-27 06:57:47
Tagged date                    : UTC 2016-09-27 06:57:47


Video
ID                             : 1
Format                         : HEVC
Format/Info                    : High Efficiency Video Coding
Format profile                 : Main [email protected]@Main
Codec ID                       : hvc1
Codec ID/Info                  : High Efficiency Video Coding
Duration                       : 43 min
Bit rate                       : 596 kb/s
Maximum bit rate               : 3 157 kb/s
Width                          : 1 280 pixels
Height                         : 720 pixels
Display aspect ratio           : 16:9
Frame rate mode                : Constant
Frame rate                     : 23.976 (24000/1001) FPS
Color space                    : YUV
Chroma subsampling             : 4:2:0
Bit depth                      : 10 bits
Bits/(Pixel*Frame)             : 0.027
Stream size                    : 186 MiB (57%)
Writing library                : x265 1.8+188-:[Windows][GCC 5.2.0][64 bit] 10bit
Color range                    : Limited
Matrix coefficients            : BT.709

Audio
ID                             : 2
Format                         : AC-3
Format/Info                    : Audio Coding 3
Mode extension                 : CM (complete main)
Format settings, Endianness    : Big
Codec ID                       : ac-3
Duration                       : 43 min
Source duration                : 43 min
Bit rate mode                  : Constant
Bit rate                       : 448 kb/s
Maximum bit rate               : 473 kb/s
Channel(s)                     : 6 channels
Channel positions              : Front: L C R, Side: L R, LFE
Sampling rate                  : 48.0 kHz
Frame rate                     : 31.250 FPS (1536 spf)
Bit depth                      : 16 bits
Compression mode               : Lossy
Stream size                    : 140 MiB (43%)
Source stream size             : 140 MiB (43%)
Title                          : AC3#audio:lang=:[email protected]
Encoded date                   : UTC 2016-09-27 06:57:49
Tagged date                    : UTC 2016-09-27 06:57:49













Gotham S03E02 720p HDTV X265 HEVC 10Bit MEGA
18 Puntos Score: 9/10
Visitas: 459 Favoritos: 0
Ver los usuarios que votaron...
1 Comentarios Gotham S03E02 720p HDTV X265 HEVC 10Bit MEGA
me llego la notificacion y entre  
Este post esta cerrado y no se permiten comentarios.
Para dejar un comentario Registrate! o.. eres ya usuario? Accede!